Вы используете незарегистрированную версию компонента "Вкладки"!

Поиск

(Avant-Garde, Free Jazz, JMT Productions) Marc Ducret (with Herb Robertson, Yves Robert, Francois Verly) - News from the Front - 1992, FLAC (tracks+.cue), lossless

(Avant-Garde, Free Jazz, JMT Productions) Marc Ducret (with Herb Robertson, Yves Robert, Francois Verly) - News from the Front - 1992, FLAC (tracks+.cue), lossless
Издатель (лейбл):
Треклист:
Marc Ducret / News from the Front
Жанр: Avant-Garde, Free Jazz, JMT Productions
Страна-производитель диска: Germany
Год издания: 1992
Издатель (лейбл): JMT Productions
Номер по каталогу: jmt 849 148-2
Аудиокодек: FLAC (*.flac)
Тип рипа: tracks+.cue
Битрейт аудио: lossless
Продолжительность: 49:02
Источник (релизер): Max Monteiro
Наличие сканов в содержимом раздачи: нет
Треклист:
1. Pour Agnès 3:44
2. Can I Call You Wren? 6:31
3. News from the Front 8:34
4. Fanfare 9:40
5. Wren Is Such a Strange Name 8:52
6. Silver Rain 3:21
7. Golden Wren 8:20
All compositions by Marc Ducret except 6 by Jean-Michel Pilc.
Recorded at Bauer Studios, Ludwigsburg, June 23-26 and July 24 + 25, 1991.
Marc Ducret – Electric and Acoustic 6 + 12 String Guitars, Fretless Guitar
Herb Robertson – Trumpet, Fluegelhorn
Yves Robert – Trombone
François Verly – Percussion, Drum Machine
 
Лог создания рипа
Exact Audio Copy V1.0 beta 3 from 29. August 2011
EAC extraction logfile from 12. September 2013, 19:05
Marc Ducret / News from the Front
Used drive : SlimtypeeNAU508 5 Adapter: 1 ID: 0
Read mode : Secure
Utilize accurate stream : Yes
Defeat audio cache : Yes
Make use of C2 pointers : No
Read offset correction : 6
Overread into Lead-In and Lead-Out : No
Fill up missing offset samples with silence : Yes
Delete leading and trailing silent blocks : No
Null samples used in CRC calculations : Yes
Used interface : Native Win32 interface for Win NT & 2000
Gap handling : Appended to previous track
Used output format : User Defined Encoder
Selected bitrate : 768 kBit/s
Quality : High
Add ID3 tag : No
Command line compressor : C:\Program Files (x86)\Exact Audio Copy\Flac\flac.exe
Additional command line options : -8 -V -T "ARTIST=%artist%" -T "TITLE=%title%" -T "ALBUM=%albumtitle%" -T "DATE=%year%" -T "TRACKNUMBER=%tracknr%" -T "GENRE=%genre%" -T "PERFORMER=%albuminterpret%" -T "COMPOSER=%composer%" %haslyrics%--tag-from-file=LYRICS="%lyricsfile%"%haslyrics% -T "ALBUMARTIST=%albumartist%" -T "DISCNUMBER=%cdnumber%" -T "TOTALDISCS=%totalcds%" -T "TOTALTRACKS=%numtracks%" -T "COMMENT=%comment%" %source% -o %dest%
TOC of the extracted CD
Track | Start | Length | Start sector | End sector
---------------------------------------------------------
1 | 0:00.33 | 3:44.00 | 33 | 16832
2 | 3:44.33 | 6:31.00 | 16833 | 46157
3 | 10:15.33 | 8:33.62 | 46158 | 84694
4 | 18:49.20 | 9:39.63 | 84695 | 128182
5 | 28:29.08 | 8:52.25 | 128183 | 168107
6 | 37:21.33 | 3:21.00 | 168108 | 183182
7 | 40:42.33 | 8:19.62 | 183183 | 220669
Track 1
Filename C:\EAC rips\01 - Pour Agnès.wav
Pre-gap length 0:00:02.33
Peak level 90.6 %
Extraction speed 1.0 X
Track quality 100.0 %
Test CRC FB07A496
Copy CRC FB07A496
Accurately ripped (confidence 3) [D1931B21] (AR v2)
Copy OK
Track 2
Filename C:\EAC rips\02 - Can I Call You Wren_.wav
Pre-gap length 0:00:02.68
Peak level 100.0 %
Extraction speed 1.3 X
Track quality 100.0 %
Test CRC 5953EE0C
Copy CRC 5953EE0C
Accurately ripped (confidence 3) [187F12A7] (AR v2)
Copy OK
Track 3
Filename C:\EAC rips\03 - News from the Front.wav
Pre-gap length 0:00:02.08
Peak level 100.0 %
Extraction speed 1.5 X
Track quality 100.0 %
Test CRC 4B290770
Copy CRC 4B290770
Accurately ripped (confidence 3) [665E5EA5] (AR v2)
Copy OK
Track 4
Filename C:\EAC rips\04 - Fanfare.wav
Pre-gap length 0:00:02.25
Peak level 100.0 %
Extraction speed 1.7 X
Track quality 100.0 %
Test CRC 5E8C3E2C
Copy CRC 5E8C3E2C
Accurately ripped (confidence 3) [0469C456] (AR v2)
Copy OK
Track 5
Filename C:\EAC rips\05 - Wren Is Such a Strange Name.wav
Pre-gap length 0:00:02.38
Peak level 100.0 %
Extraction speed 1.9 X
Track quality 100.0 %
Test CRC 675FC1F0
Copy CRC 675FC1F0
Accurately ripped (confidence 3) [E93362CB] (AR v2)
Copy OK
Track 6
Filename C:\EAC rips\06 - Silver Rain.wav
Pre-gap length 0:00:03.48
Peak level 60.0 %
Extraction speed 1.8 X
Track quality 100.0 %
Test CRC 3B766DD5
Copy CRC 3B766DD5
Accurately ripped (confidence 3) [EB47DA0F] (AR v2)
Copy OK
Track 7
Filename C:\EAC rips\07 - Golden Wren.wav
Pre-gap length 0:00:02.25
Peak level 100.0 %
Extraction speed 2.1 X
Track quality 100.0 %
Test CRC 676A995C
Copy CRC 676A995C
Accurately ripped (confidence 3) [39739B0E] (AR v2)
Copy OK
All tracks accurately ripped
No errors occurred
End of status report
---- CUETools DB Plugin V2.1.4
[CTDB TOCID: Bbo_gPj1.SZ32Tfw02v92TxzOVE-] disk not present in database
Submit result: Bbo_gPj1.SZ32Tfw02v92TxzOVE- has been uploaded
==== Log checksum 4B2C307772173DABA3437A97FC14DEA08D7F6D4AB0EEAD81CA1BE49E17B4A3F8 ====
 
Содержание индексной карты (.CUE)
REM GENRE Jazz
REM DATE 1992
REM DISCID 430B7E07
REM COMMENT "ExactAudioCopy v1.0b3"
CATALOG 0042284914826
PERFORMER "Marc Ducret"
TITLE "News from the Front"
FILE "01 - Pour Agnès.wav" WAVE
TRACK 01 AUDIO
TITLE "Pour Agnès"
PERFORMER "Marc Ducret"
PREGAP 00:00:33
INDEX 01 00:00:00
TRACK 02 AUDIO
TITLE "Can I Call You Wren?"
PERFORMER "Marc Ducret"
INDEX 00 03:41:07
FILE "02 - Can I Call You Wren_.wav" WAVE
INDEX 01 00:00:00
TRACK 03 AUDIO
TITLE "News from the Front"
PERFORMER "Marc Ducret"
INDEX 00 06:28:67
FILE "03 - News from the Front.wav" WAVE
INDEX 01 00:00:00
TRACK 04 AUDIO
TITLE "Fanfare"
PERFORMER "Marc Ducret"
INDEX 00 08:31:37
FILE "04 - Fanfare.wav" WAVE
INDEX 01 00:00:00
TRACK 05 AUDIO
TITLE "Wren Is Such a Strange Name"
PERFORMER "Marc Ducret"
INDEX 00 09:37:25
FILE "05 - Wren Is Such a Strange Name.wav" WAVE
INDEX 01 00:00:00
TRACK 06 AUDIO
TITLE "Silver Rain"
PERFORMER "Marc Ducret"
INDEX 00 08:48:52
FILE "06 - Silver Rain.wav" WAVE
INDEX 01 00:00:00
TRACK 07 AUDIO
TITLE "Golden Wren"
PERFORMER "Marc Ducret"
INDEX 00 03:18:50
FILE "07 - Golden Wren.wav" WAVE
INDEX 01 00:00:00
Доп. информация: The picture comes from Rainer Werner Fassbinder's movie "Die Ehe der Maria Braun" (1979).
Any questions -> support@pro-jazz.com. По всем вопросам пишите -> support@pro-jazz.com
18:03
169
Нет комментариев. Ваш будет первым!