Вы используете незарегистрированную версию компонента "Вкладки"!

Поиск

(Free Improvisation) John Corbett, Mats Gustafsson, Terri Kapsalis, Fred Lonberg-Holm - Battuto - 2000, FLAC (tracks+.cue), lossless

(Free Improvisation) John Corbett, Mats Gustafsson, Terri Kapsalis, Fred Lonberg-Holm - Battuto - 2000, FLAC (tracks+.cue), lossless
Треклист:
Corbett, Gustafsson, Kapsalis, Lonberg-Holm / Battuto
Жанр: Free Improvisation
Страна-производитель диска: Germany
Год издания: 2000
Издатель (лейбл): Random Acoustics
Номер по каталогу: RA 023
Аудиокодек: FLAC (*.flac)
Тип рипа: tracks+.cue
Битрейт аудио: lossless
Продолжительность: 68:08
Источник (релизер): whatcd, tvirlip
Наличие сканов в содержимом раздачи: да
Треклист:
Tagliatelle (I-III)
1 I 5:39
2 II 2:29
3 III 2:26
Trenne D'abruzzo (I-III)
4 I 4:17
5 II 2:32
6 III 1:32
Fusilli Bucati Lunghi (I-IX)
7 I 5:21
8 II 1:44
9 III 2:27
10 IV 5:12
11 V 5:39
12 VI 4:29
13 VII 2:57
14 VIII 1:42
15 IX 4:04
Tagliatelle (IV-VI)
16 IV 3:46
17 V 5:40
18 VI 4:37
 
Лог создания рипа
Exact Audio Copy V0.99 prebeta 5 from 4. May 2009
EAC extraction logfile from 3. August 2010, 20:01
Corbett - Gustafsson - Kapsalis - Lonberg-Holm / Battuto
Used drive : HL-DT-STDVD-ROM GDR8162B Adapter: 1 ID: 1
Read mode : Secure
Utilize accurate stream : Yes
Defeat audio cache : Yes
Make use of C2 pointers : No
Read offset correction : 102
Overread into Lead-In and Lead-Out : Yes
Fill up missing offset samples with silence : Yes
Delete leading and trailing silent blocks : No
Null samples used in CRC calculations : Yes
Used interface : Installed external ASPI interface
Gap handling : Appended to previous track
Used output format : User Defined Encoder
Selected bitrate : 768 kBit/s
Quality : High
Add ID3 tag : No
Command line compressor : C:\Program Files\FLAC\flac.exe
Additional command line options : -V -8 -T "ARTIST=%a" -T "TITLE=%t" -T "ALBUM=%g" -T "TRACKNUMBER=%n" -T "GENRE=%m" %s
TOC of the extracted CD
Track | Start | Length | Start sector | End sector
---------------------------------------------------------
1 | 0:00.00 | 10:56.15 | 0 | 49214
2 | 10:56.15 | 8:43.67 | 49215 | 88506
3 | 19:40.07 | 34:17.70 | 88507 | 242851
4 | 53:58.02 | 14:10.65 | 242852 | 306666
Track 1
Filename C:\ru up\Corbett - Gustafsson - Kapsalis - Lonberg-Holm - Battuto\01 - Tagliatelle (I-III).wav
Pre-gap length 0:00:02.00
Peak level 98.6 %
Track quality 100.0 %
Test CRC A08FD2C3
Copy CRC A08FD2C3
Track not present in AccurateRip database
Copy OK
Track 2
Filename C:\ru up\Corbett - Gustafsson - Kapsalis - Lonberg-Holm - Battuto\02 - Trenne d'abruzzo (I-III).wav
Pre-gap length 0:00:15.43
Peak level 99.9 %
Track quality 100.0 %
Test CRC 4681BC7C
Copy CRC 4681BC7C
Track not present in AccurateRip database
Copy OK
Track 3
Filename C:\ru up\Corbett - Gustafsson - Kapsalis - Lonberg-Holm - Battuto\03 - Fusilli bucati lunghi (I-IX).wav
Pre-gap length 0:00:14.52
Peak level 99.9 %
Track quality 100.0 %
Test CRC 77F50030
Copy CRC 77F50030
Track not present in AccurateRip database
Copy OK
Track 4
Filename C:\ru up\Corbett - Gustafsson - Kapsalis - Lonberg-Holm - Battuto\04 - Tagliatelle (IV-VI).wav
Pre-gap length 0:00:14.55
Peak level 93.2 %
Track quality 100.0 %
Test CRC D95244EB
Copy CRC D95244EB
Track not present in AccurateRip database
Copy OK
None of the tracks are present in the AccurateRip database
No errors occurred
End of status report
 
Содержание индексной карты (.CUE)
REM GENRE Jazz
REM DATE 1996
REM DISCID 2A0FF804
REM COMMENT "ExactAudioCopy v0.99pb5"
PERFORMER "Corbett - Gustafsson - Kapsalis - Lonberg-Holm"
TITLE "Battuto"
FILE "01 - Tagliatelle (I-III).wav" WAVE
TRACK 01 AUDIO
TITLE "Tagliatelle (I-III)"
PERFORMER "Corbett - Gustafsson - Kapsalis - Lonberg-Holm"
INDEX 01 00:00:00
TRACK 02 AUDIO
TITLE "Trenne d'abruzzo (I-III)"
PERFORMER "Corbett - Gustafsson - Kapsalis - Lonberg-Holm"
INDEX 00 10:40:47
FILE "02 - Trenne d'abruzzo (I-III).wav" WAVE
INDEX 01 00:00:00
TRACK 03 AUDIO
TITLE "Fusilli bucati lunghi (I-IX)"
PERFORMER "Corbett - Gustafsson - Kapsalis - Lonberg-Holm"
INDEX 00 08:29:15
FILE "03 - Fusilli bucati lunghi (I-IX).wav" WAVE
INDEX 01 00:00:00
TRACK 04 AUDIO
TITLE "Tagliatelle (IV-VI)"
PERFORMER "Corbett - Gustafsson - Kapsalis - Lonberg-Holm"
INDEX 00 34:03:15
FILE "04 - Tagliatelle (IV-VI).wav" WAVE
INDEX 01 00:00:00
Доп. информация: Recorded October 7, 1996 at AirWave Recording Studios, Chicago, US.
Mixed and mastered January 7, 1997 at AirWave.
 
Состав
Cello – Fred Lonberg-Holm
Guitar – John Corbett
Tenor Saxophone, Reeds [Fluteophone], Flute, Flageolet – Mats Gustafsson
Violin – Terri Kapsalis
Any questions -> support@pro-jazz.com. По всем вопросам пишите -> support@pro-jazz.com
18:04
195
Нет комментариев. Ваш будет первым!