Вы используете незарегистрированную версию компонента "Вкладки"!

Поиск

(Free Improvisation, Altri Suoni) Pierre-Francois Massy - "Enfin seul" - 2004, FLAC (tracks+.cue), lossless

(Free Improvisation, Altri Suoni) Pierre-Francois Massy - "Enfin seul" - 2004, FLAC (tracks+.cue), lossless
Треклист:
Pierre-François Massy / "Enfin seul"
Жанр: Free Improvisation, Altri Suoni
Страна-производитель диска: Switzerland
Год издания: 2004
Издатель (лейбл): Altri Suoni
Номер по каталогу: AS 172
Аудиокодек: FLAC (*.flac)
Тип рипа: tracks+.cue
Битрейт аудио: lossless
Продолжительность: 46:33
Источник (релизер): Max Monteiro
Наличие сканов в содержимом раздачи: нет
Треклист:
01. Dix-Huit Heures quatre (2:48)
02. Deux sans trois (Igor Malherbe) (3:21)
03. Blues # XI (2:55)
04. Arco bruto (2:05)
05. Arco lirico (1:21)
06. Solo III (4:40)
07. Solo IV (3:13)
08. Lise de la vallée (3:23)
09. Dix-Huit Heures trente (2:16)
10. Sérénade de la 5e suite (Jean-Sébastien Bach) (1:55)
11. Arco ponticello (3:13)
12. Do min harm (3:32)
13. Deux en un (3:38)
14. Dix-Huit Heures quarante-cinq (2:07)
15. Pour finir (2:30)
16. Silence (Charlie Haden) (3:37)
Les compositions sont de Pierre-François Massy sauf où indiqué.
Enregistré en public le 20 août 2002 à l’église Saint-Laurent de Lausanne dans le cadre du Festival de musique improvisée de Lausanne.
Pierre-François Massy – contrebasse solo
 
Лог создания рипа
Exact Audio Copy V1.0 beta 3 from 29. August 2011
EAC extraction logfile from 10. September 2013, 14:07
Pierre-François Massy / "Enfin seul"
Used drive : SlimtypeeNAU508 5 Adapter: 1 ID: 0
Read mode : Secure
Utilize accurate stream : Yes
Defeat audio cache : Yes
Make use of C2 pointers : No
Read offset correction : 6
Overread into Lead-In and Lead-Out : No
Fill up missing offset samples with silence : Yes
Delete leading and trailing silent blocks : No
Null samples used in CRC calculations : Yes
Used interface : Native Win32 interface for Win NT & 2000
Gap handling : Appended to previous track
Used output format : User Defined Encoder
Selected bitrate : 768 kBit/s
Quality : High
Add ID3 tag : No
Command line compressor : C:\Program Files (x86)\Exact Audio Copy\Flac\flac.exe
Additional command line options : -8 -V -T "ARTIST=%artist%" -T "TITLE=%title%" -T "ALBUM=%albumtitle%" -T "DATE=%year%" -T "TRACKNUMBER=%tracknr%" -T "GENRE=%genre%" -T "PERFORMER=%albuminterpret%" -T "COMPOSER=%composer%" %haslyrics%--tag-from-file=LYRICS="%lyricsfile%"%haslyrics% -T "ALBUMARTIST=%albumartist%" -T "DISCNUMBER=%cdnumber%" -T "TOTALDISCS=%totalcds%" -T "TOTALTRACKS=%numtracks%" -T "COMMENT=%comment%" %source% -o %dest%
TOC of the extracted CD
Track | Start | Length | Start sector | End sector
---------------------------------------------------------
1 | 0:00.00 | 2:48.09 | 0 | 12608
2 | 2:48.09 | 3:20.43 | 12609 | 27651
3 | 6:08.52 | 2:55.11 | 27652 | 40787
4 | 9:03.63 | 2:05.20 | 40788 | 50182
5 | 11:09.08 | 1:20.58 | 50183 | 56240
6 | 12:29.66 | 4:39.66 | 56241 | 77231
7 | 17:09.57 | 3:13.32 | 77232 | 91738
8 | 20:23.14 | 3:22.60 | 91739 | 106948
9 | 23:45.74 | 2:16.05 | 106949 | 117153
10 | 26:02.04 | 1:54.73 | 117154 | 125776
11 | 27:57.02 | 3:12.38 | 125777 | 140214
12 | 31:09.40 | 3:32.11 | 140215 | 156125
13 | 34:41.51 | 3:37.47 | 156126 | 172447
14 | 38:19.23 | 2:06.55 | 172448 | 181952
15 | 40:26.03 | 2:29.62 | 181953 | 193189
16 | 42:55.65 | 3:37.08 | 193190 | 209472
Track 1
Filename C:\EAC rips\01 - Dix-Huit Heures quatre.wav
Pre-gap length 0:00:02.00
Peak level 97.7 %
Extraction speed 2.0 X
Track quality 100.0 %
Test CRC 934CE247
Copy CRC 934CE247
Track not present in AccurateRip database
Copy OK
Track 2
Filename C:\EAC rips\02 - Deux sans trois.wav
Peak level 97.7 %
Extraction speed 2.3 X
Track quality 100.0 %
Test CRC D9466B71
Copy CRC D9466B71
Track not present in AccurateRip database
Copy OK
Track 3
Filename C:\EAC rips\03 - Blues # XI.wav
Peak level 97.7 %
Extraction speed 2.4 X
Track quality 100.0 %
Test CRC D20A4739
Copy CRC D20A4739
Track not present in AccurateRip database
Copy OK
Track 4
Filename C:\EAC rips\04 - Arco bruto.wav
Pre-gap length 0:00:04.03
Peak level 97.7 %
Extraction speed 2.4 X
Track quality 100.0 %
Test CRC 70D8E190
Copy CRC 70D8E190
Track not present in AccurateRip database
Copy OK
Track 5
Filename C:\EAC rips\05 - Arco lirico.wav
Peak level 90.3 %
Extraction speed 2.1 X
Track quality 100.0 %
Test CRC 4F00F3ED
Copy CRC 4F00F3ED
Track not present in AccurateRip database
Copy OK
Track 6
Filename C:\EAC rips\06 - Solo III.wav
Peak level 97.7 %
Extraction speed 2.4 X
Track quality 99.9 %
Test CRC 154449F7
Copy CRC 154449F7
Track not present in AccurateRip database
Copy OK
Track 7
Filename C:\EAC rips\07 - Solo IV.wav
Peak level 85.4 %
Extraction speed 2.6 X
Track quality 100.0 %
Test CRC 5D0E6EF4
Copy CRC 5D0E6EF4
Track not present in AccurateRip database
Copy OK
Track 8
Filename C:\EAC rips\08 - Lise de la vallée.wav
Pre-gap length 0:00:05.57
Peak level 97.7 %
Extraction speed 3.0 X
Track quality 100.0 %
Test CRC 301EA9E9
Copy CRC 301EA9E9
Track not present in AccurateRip database
Copy OK
Track 9
Filename C:\EAC rips\09 - Dix-Huit Heures trente.wav
Peak level 65.5 %
Extraction speed 3.0 X
Track quality 100.0 %
Test CRC 16E26181
Copy CRC 16E26181
Track not present in AccurateRip database
Copy OK
Track 10
Filename C:\EAC rips\10 - Sérénade de la 5e suite.wav
Peak level 58.0 %
Extraction speed 2.6 X
Track quality 100.0 %
Test CRC AA71779C
Copy CRC AA71779C
Track not present in AccurateRip database
Copy OK
Track 11
Filename C:\EAC rips\11 - Arco ponticello.wav
Peak level 97.7 %
Extraction speed 3.4 X
Track quality 100.0 %
Test CRC 97DA58CE
Copy CRC 97DA58CE
Track not present in AccurateRip database
Copy OK
Track 12
Filename C:\EAC rips\12 - Do min harm.wav
Peak level 97.7 %
Extraction speed 2.7 X
Track quality 99.9 %
Test CRC 76C4A068
Copy CRC 76C4A068
Track not present in AccurateRip database
Copy OK
Track 13
Filename C:\EAC rips\13 - Deux en un.wav
Peak level 97.7 %
Extraction speed 3.7 X
Track quality 100.0 %
Test CRC 4E1737CB
Copy CRC 4E1737CB
Track not present in AccurateRip database
Copy OK
Track 14
Filename C:\EAC rips\14 - Dix-Huit Heures quarante-cinq.wav
Peak level 97.7 %
Extraction speed 3.2 X
Track quality 100.0 %
Test CRC 823F1654
Copy CRC 823F1654
Track not present in AccurateRip database
Copy OK
Track 15
Filename C:\EAC rips\15 - Pour finir.wav
Peak level 97.7 %
Extraction speed 3.3 X
Track quality 100.0 %
Test CRC 6FDF41E6
Copy CRC 6FDF41E6
Track not present in AccurateRip database
Copy OK
Track 16
Filename C:\EAC rips\16 - Silence.wav
Pre-gap length 0:00:00.48
Peak level 69.7 %
Extraction speed 3.2 X
Track quality 99.9 %
Test CRC 68F8F354
Copy CRC 68F8F354
Track not present in AccurateRip database
Copy OK
None of the tracks are present in the AccurateRip database
No errors occurred
End of status report
---- CUETools DB Plugin V2.1.4
[CTDB TOCID: GEny5ov90xVHi0PAd0o2gcaFmPM-] disk not present in database
Submit result: GEny5ov90xVHi0PAd0o2gcaFmPM- has been uploaded
==== Log checksum 88DA24CB4C9DC05DEE767BB65D3A926C62FF2221CFEB2CC4D1439CA7CF23AA89 ====
 
Содержание индексной карты (.CUE)
REM GENRE Jazz
REM DATE 2004
REM DISCID CA0AE810
REM COMMENT "ExactAudioCopy v1.0b3"
PERFORMER "Pierre-François Massy"
TITLE "'Enfin seul'"
FILE "01 - Dix-Huit Heures quatre.wav" WAVE
TRACK 01 AUDIO
TITLE "Dix-Huit Heures quatre"
PERFORMER "Pierre-François Massy"
ISRC CH1880417201
INDEX 01 00:00:00
FILE "02 - Deux sans trois.wav" WAVE
TRACK 02 AUDIO
TITLE "Deux sans trois"
PERFORMER "Pierre-François Massy"
ISRC CH1880417202
INDEX 01 00:00:00
FILE "03 - Blues # XI.wav" WAVE
TRACK 03 AUDIO
TITLE "Blues # XI"
PERFORMER "Pierre-François Massy"
ISRC CH1880417203
INDEX 01 00:00:00
TRACK 04 AUDIO
TITLE "Arco bruto"
PERFORMER "Pierre-François Massy"
ISRC CH1880417204
INDEX 00 02:51:08
FILE "04 - Arco bruto.wav" WAVE
INDEX 01 00:00:00
FILE "05 - Arco lirico.wav" WAVE
TRACK 05 AUDIO
TITLE "Arco lirico"
PERFORMER "Pierre-François Massy"
ISRC CH1880417205
INDEX 01 00:00:00
FILE "06 - Solo III.wav" WAVE
TRACK 06 AUDIO
TITLE "Solo III"
PERFORMER "Pierre-François Massy"
ISRC CH1880417206
INDEX 01 00:00:00
FILE "07 - Solo IV.wav" WAVE
TRACK 07 AUDIO
TITLE "Solo IV"
PERFORMER "Pierre-François Massy"
ISRC CH1880417207
INDEX 01 00:00:00
TRACK 08 AUDIO
TITLE "Lise de la vallée"
PERFORMER "Pierre-François Massy"
ISRC CH1880417208
INDEX 00 03:07:50
FILE "08 - Lise de la vallée.wav" WAVE
INDEX 01 00:00:00
FILE "09 - Dix-Huit Heures trente.wav" WAVE
TRACK 09 AUDIO
TITLE "Dix-Huit Heures trente"
PERFORMER "Pierre-François Massy"
ISRC CH1880417209
INDEX 01 00:00:00
FILE "10 - Sérénade de la 5e suite.wav" WAVE
TRACK 10 AUDIO
TITLE "Sérénade de la 5e suite"
PERFORMER "Pierre-François Massy"
ISRC CH1880417210
INDEX 01 00:00:00
FILE "11 - Arco ponticello.wav" WAVE
TRACK 11 AUDIO
TITLE "Arco ponticello"
PERFORMER "Pierre-François Massy"
ISRC CH1880417211
INDEX 01 00:00:00
FILE "12 - Do min harm.wav" WAVE
TRACK 12 AUDIO
TITLE "Do min harm"
PERFORMER "Pierre-François Massy"
ISRC CH1880417212
INDEX 01 00:00:00
FILE "13 - Deux en un.wav" WAVE
TRACK 13 AUDIO
TITLE "Deux en un"
PERFORMER "Pierre-François Massy"
ISRC CH1880417213
INDEX 01 00:00:00
FILE "14 - Dix-Huit Heures quarante-cinq.wav" WAVE
TRACK 14 AUDIO
TITLE "Dix-Huit Heures quarante-cinq"
PERFORMER "Pierre-François Massy"
ISRC CH1880417214
INDEX 01 00:00:00
FILE "15 - Pour finir.wav" WAVE
TRACK 15 AUDIO
TITLE "Pour finir"
PERFORMER "Pierre-François Massy"
ISRC CH1880417215
INDEX 01 00:00:00
TRACK 16 AUDIO
TITLE "Silence"
PERFORMER "Pierre-François Massy"
ISRC CH1880417216
INDEX 00 02:29:14
FILE "16 - Silence.wav" WAVE
INDEX 01 00:00:00
Any questions -> support@pro-jazz.com. По всем вопросам пишите -> support@pro-jazz.com
18:04
153
Нет комментариев. Ваш будет первым!