Вы используете незарегистрированную версию компонента "Вкладки"!

Поиск

(Avant-Garde Jazz, Modern Creative) Russ Johnson - Save Big - 2004, FLAC (tracks+.cue), lossless

(Avant-Garde Jazz, Modern Creative) Russ Johnson - Save Big - 2004, FLAC (tracks+.cue), lossless
Треклист:
Russ Johnson - Save Big
Жанр: Avant-Garde Jazz, Modern Creative
Страна-производитель диска: США
Год издания: 2004
Издатель (лейбл): OmniTone
Номер по каталогу: 12205
Аудиокодек: FLAC (*.flac)
Тип рипа: tracks+.cue
Битрейт аудио: lossless
Продолжительность: 57:05
Источник (релизер): superfastkyle (what)
Наличие сканов в содержимом раздачи: нет
Треклист:
01. Saguache (Johnson) - 6:54
02. Figuratively Speaking (Johnson) - 7:00
03. Reveille (Driscoll) - 5:44
04. Duo (Johnson) - 3:15
05. Indonesian Folk Song (Trad.) - 5:07
06. Rapid Comfort (Johnson) - 6:18
07. Constantinople (Johnson) - 9:26
08. The Loper (Johnson) - 10:00
09. Sympathetic Mildew (Johnson) - 2:14
10. [Untitled Track] - 1:07
Состав:
Russ Johnson - trumpet
John O'Gallagher - alto saxophone
Kermit Driscoll - bass
Mark Ferber - drums, percussion
 
Лог создания рипа
Exact Audio Copy V1.0 beta 3 from 29. August 2011
EAC extraction logfile from 8. September 2013, 17:41
Russel Johnson / Save Big
Used drive : LITE-ON DVDRW SHW-160P6S Adapter: 1 ID: 0
Read mode : Secure
Utilize accurate stream : Yes
Defeat audio cache : Yes
Make use of C2 pointers : No
Read offset correction : 6
Overread into Lead-In and Lead-Out : No
Fill up missing offset samples with silence : Yes
Delete leading and trailing silent blocks : No
Null samples used in CRC calculations : Yes
Used interface : Native Win32 interface for Win NT & 2000
Gap handling : Appended to previous track
Used output format : User Defined Encoder
Selected bitrate : 1024 kBit/s
Quality : High
Add ID3 tag : No
Command line compressor : C:\Program Files (x86)\Exact Audio Copy\FLAC\FLAC.EXE
Additional command line options : -8 -V -T "ARTIST=%artist%" -T "TITLE=%title%" -T "ALBUM=%albumtitle%" -T "DATE=%year%" -T "TRACKNUMBER=%tracknr%" -T "GENRE=%genre%" -T "COMMENT=%comment%" -T "BAND=%albuminterpret%" -T "ALBUMARTIST=%albuminterpret%" -T "COMPOSER=%composer%" %haslyrics%--tag-from-file=LYRICS="%lyricsfile%"%haslyrics% -T "DISCNUMBER=%cdnumber%" -T "TOTALDISCS=%totalcds%" -T "TOTALTRACKS=%numtracks%" %hascover%--picture="%coverfile%"%hascover% %source% -o %dest%
TOC of the extracted CD
Track | Start | Length | Start sector | End sector
---------------------------------------------------------
1 | 0:00.00 | 6:54.22 | 0 | 31071
2 | 6:54.22 | 7:00.26 | 31072 | 62597
3 | 13:54.48 | 5:43.51 | 62598 | 88373
4 | 19:38.24 | 3:14.39 | 88374 | 102962
5 | 22:52.63 | 5:07.33 | 102963 | 126020
6 | 28:00.21 | 6:17.67 | 126021 | 154362
7 | 34:18.13 | 9:25.41 | 154363 | 196778
8 | 43:43.54 | 9:59.50 | 196779 | 241753
9 | 53:43.29 | 2:14.00 | 241754 | 251803
10 | 55:57.29 | 1:07.26 | 251804 | 256854
Track 1
Filename C:\Users\Kyle\Downloads\Russ Johnson - Save Big (2004) [FLAC]\01 - Russ Johnson - Saguache.wav
Pre-gap length 0:00:02.00
Peak level 100.0 %
Extraction speed 1.8 X
Track quality 99.9 %
Test CRC D59B08A9
Copy CRC D59B08A9
Accurately ripped (confidence 2) [D60A8D34] (AR v1)
Copy OK
Track 2
Filename C:\Users\Kyle\Downloads\Russ Johnson - Save Big (2004) [FLAC]\02 - Russ Johnson - Figuratively Speaking.wav
Pre-gap length 0:00:03.00
Peak level 100.0 %
Extraction speed 2.3 X
Track quality 100.0 %
Test CRC 97D605FA
Copy CRC 97D605FA
Accurately ripped (confidence 2) [F6FB56C0] (AR v1)
Copy OK
Track 3
Filename C:\Users\Kyle\Downloads\Russ Johnson - Save Big (2004) [FLAC]\03 - Russ Johnson - Reveille.wav
Pre-gap length 0:00:02.74
Peak level 87.1 %
Extraction speed 2.3 X
Track quality 100.0 %
Test CRC C73E125C
Copy CRC C73E125C
Accurately ripped (confidence 2) [10E072A6] (AR v1)
Copy OK
Track 4
Filename C:\Users\Kyle\Downloads\Russ Johnson - Save Big (2004) [FLAC]\04 - Russ Johnson - Duo.wav
Pre-gap length 0:00:00.74
Peak level 74.1 %
Extraction speed 1.4 X
Track quality 99.9 %
Test CRC 38EEBE23
Copy CRC 38EEBE23
Accurately ripped (confidence 2) [C89FDD8F] (AR v1)
Copy OK
Track 5
Filename C:\Users\Kyle\Downloads\Russ Johnson - Save Big (2004) [FLAC]\05 - Russ Johnson - Indonesian Folk Song.wav
Pre-gap length 0:00:00.50
Peak level 100.0 %
Extraction speed 1.7 X
Track quality 99.9 %
Test CRC D3C36E26
Copy CRC D3C36E26
Accurately ripped (confidence 2) [EFFD3358] (AR v1)
Copy OK
Track 6
Filename C:\Users\Kyle\Downloads\Russ Johnson - Save Big (2004) [FLAC]\06 - Russ Johnson - Rapid Comfort.wav
Pre-gap length 0:00:02.74
Peak level 100.0 %
Extraction speed 2.3 X
Track quality 100.0 %
Test CRC 45AB58BC
Copy CRC 45AB58BC
Accurately ripped (confidence 2) [7B10D38C] (AR v1)
Copy OK
Track 7
Filename C:\Users\Kyle\Downloads\Russ Johnson - Save Big (2004) [FLAC]\07 - Russ Johnson - Constantinople.wav
Pre-gap length 0:00:02.74
Peak level 100.0 %
Extraction speed 2.3 X
Track quality 100.0 %
Test CRC FCC349A6
Copy CRC FCC349A6
Accurately ripped (confidence 2) [BC2ABA07] (AR v1)
Copy OK
Track 8
Filename C:\Users\Kyle\Downloads\Russ Johnson - Save Big (2004) [FLAC]\08 - Russ Johnson - The Loper.wav
Pre-gap length 0:00:02.74
Peak level 100.0 %
Extraction speed 2.3 X
Track quality 100.0 %
Test CRC C23536AA
Copy CRC C23536AA
Accurately ripped (confidence 2) [00C50C84] (AR v1)
Copy OK
Track 9
Filename C:\Users\Kyle\Downloads\Russ Johnson - Save Big (2004) [FLAC]\09 - Russ Johnson - Sympathetic Mildew.wav
Pre-gap length 0:00:02.50
Peak level 96.6 %
Extraction speed 1.9 X
Track quality 100.0 %
Test CRC 9F8EB41A
Copy CRC 9F8EB41A
Accurately ripped (confidence 2) [E364D3D4] (AR v1)
Copy OK
Track 10
Filename C:\Users\Kyle\Downloads\Russ Johnson - Save Big (2004) [FLAC]\10 - Russ Johnson - [Untitled Track].wav
Pre-gap length 0:00:30.00
Peak level 49.2 %
Extraction speed 1.5 X
Track quality 100.0 %
Test CRC 966C5029
Copy CRC 966C5029
Accurately ripped (confidence 2) [16304214] (AR v1)
Copy OK
All tracks accurately ripped
No errors occurred
End of status report
==== Log checksum 7CD8E0AB3219243661A9B99EEE003CE992F8F6BE7F6573047ED616AA3C568E25 ====
 
Содержание индексной карты (.CUE)
REM GENRE Jazz
REM DATE 2004
REM DISCID 7F0D600A
REM COMMENT "ExactAudioCopy v1.0b3"
PERFORMER "Russ Johnson"
TITLE "Save Big"
FILE "01 - Saguache.wav" WAVE
TRACK 01 AUDIO
TITLE "Saguache"
PERFORMER "Russ Johnson"
INDEX 01 00:00:00
TRACK 02 AUDIO
TITLE "Figuratively Speaking"
PERFORMER "Russ Johnson"
INDEX 00 06:51:22
FILE "02 - Figuratively Speaking.wav" WAVE
INDEX 01 00:00:00
TRACK 03 AUDIO
TITLE "Reveille"
PERFORMER "Russ Johnson"
INDEX 00 06:57:45
FILE "03 - Reveille.wav" WAVE
INDEX 01 00:00:00
TRACK 04 AUDIO
TITLE "Duo"
PERFORMER "Russ Johnson"
INDEX 00 05:42:70
FILE "04 - Duo.wav" WAVE
INDEX 01 00:00:00
TRACK 05 AUDIO
TITLE "Indonesian Folk Song"
PERFORMER "Russ Johnson"
INDEX 00 03:14:01
FILE "05 - Indonesian Folk Song.wav" WAVE
INDEX 01 00:00:00
TRACK 06 AUDIO
TITLE "Rapid Comfort"
PERFORMER "Russ Johnson"
INDEX 00 05:04:52
FILE "06 - Rapid Comfort.wav" WAVE
INDEX 01 00:00:00
TRACK 07 AUDIO
TITLE "Constantinople"
PERFORMER "Russ Johnson"
INDEX 00 06:15:11
FILE "07 - Constantinople.wav" WAVE
INDEX 01 00:00:00
TRACK 08 AUDIO
TITLE "The Loper"
PERFORMER "Russ Johnson"
INDEX 00 09:22:60
FILE "08 - The Loper.wav" WAVE
INDEX 01 00:00:00
TRACK 09 AUDIO
TITLE "Sympathetic Mildew"
PERFORMER "Russ Johnson"
INDEX 00 09:57:12
FILE "09 - Sympathetic Mildew.wav" WAVE
INDEX 01 00:00:00
TRACK 10 AUDIO
TITLE "[Untitled Track]"
PERFORMER "Russ Johnson"
INDEX 00 01:44:00
FILE "10 - [Untitled Track].wav" WAVE
INDEX 01 00:00:00
 
Отчет CUETools
[CUETools log; Date: 13.09.2013 23:17:44; Version: 2.1.4]
[CTDB TOCID: rJ5G1HPrM2JMjrr04mzrL8Fm6GU-] found.
Track | CTDB Status
1 | (1/1) Accurately ripped
2 | (1/1) Accurately ripped
3 | (1/1) Accurately ripped
4 | (1/1) Accurately ripped
5 | (1/1) Accurately ripped
6 | (1/1) Accurately ripped
7 | (1/1) Accurately ripped
8 | (1/1) Accurately ripped
9 | (1/1) Accurately ripped
10 | (1/1) Accurately ripped
[AccurateRip ID: 00171487-00b7d7fc-7f0d600a] found.
Track [ CRC | V2 ] Status
01 [d60a8d34|9ac5b214] (2+0/2) Accurately ripped
02 [f6fb56c0|60fed8bd] (2+0/2) Accurately ripped
03 [10e072a6|e622d783] (2+0/2) Accurately ripped
04 [c89fdd8f|01e85940] (2+0/2) Accurately ripped
05 [effd3358|575cfb4e] (2+0/2) Accurately ripped
06 [7b10d38c|582c6029] (2+0/2) Accurately ripped
07 [bc2aba07|33aeb473] (2+0/2) Accurately ripped
08 [00c50c84|e354700f] (2+0/2) Accurately ripped
09 [e364d3d4|38b13f1e] (2+0/2) Accurately ripped
10 [16304214|3d4bd23a] (2+0/2) Accurately ripped
Track Peak [ CRC32 ] [W/O NULL] [ LOG ]
-- 100,0 [5600EE0C] [14D5D39E]
01 100,0 [D59B08A9] [1E1A85A6] CRC32
02 100,0 [97D605FA] [9CCB1EDA] CRC32
03 87,1 [C73E125C] [E753BA20] CRC32
04 74,1 [38EEBE23] [C34A2E76] CRC32
05 100,0 [D3C36E26] [A1F8E9C0] CRC32
06 100,0 [45AB58BC] [06D5BC17] CRC32
07 100,0 [FCC349A6] [0B4604BA] CRC32
08 100,0 [C23536AA] [304F6547] CRC32
09 96,6 [9F8EB41A] [C463616C] CRC32
10 49,2 [966C5029] [8FA14A6A] CRC32
 
Review by Alain Drouot
A member of the collective the Other Quartet, trumpeter Russ Johnson delivers an impressive debut as a leader with Save Big. He puts together a sympathetic and dedicated team that achieves a focused effort. The opening "Saguache" sets the tone with its unpretentious melody, which slowly builds intensity to reach an exhilarating climax. After such a brilliant introduction, the band doesn't lose any steam, executing quality material with a remarkable consistency. The musicians never rush, but avoid sounding static. Both the compositions and improvisations are carefully structured and articulated, and although they nod to tradition, they share a progressive spirit. While some cuts include Eastern sonorities, they all follow an unpredictable path and show a real sense of purpose. Johnson is a thoughtful player who can produce a large range of tones and textures through his masterful use of mutes. He has found a perfect foil in alto sax John O'Gallagher, whose versatility is a definite asset. The rhythm section features the ubiquitous Kermit Driscoll on bass and the lesser-known Mark Ferber on drums. They play with a welcome economy of notes, apply all the right touches, and place adequate punctuation. All those qualities make for a promising debut by a musician to keep under close watch.
Any questions -> support@pro-jazz.com. По всем вопросам пишите -> support@pro-jazz.com
18:05
201
Нет комментариев. Ваш будет первым!