Вы используете незарегистрированную версию компонента "Вкладки"!

Поиск

(Free Jazz, Ethnic Jazz) Adam Rudolph & Ralph Jones - Yeyi - 2010, FLAC (tracks+.cue), lossless

(Free Jazz, Ethnic Jazz) Adam Rudolph & Ralph Jones - Yeyi - 2010, FLAC (tracks+.cue), lossless
Треклист:
Adam Rudolph & Ralph Jones / Yeyi
Жанр: Free Jazz, Ethnic Jazz
Страна-производитель диска: US
Год издания: 2010
Издатель (лейбл): Meta Records
Номер по каталогу: META 011
Страна: US
Аудиокодек: FLAC (*.flac)
Тип рипа: tracks+.cue
Битрейт аудио: lossless
Продолжительность: 63:37
Источник (релизер): свой фирменный диск
Наличие сканов в содержимом раздачи:
Треклист:
1 Nectaric Vibrations 6:52
2 Aspects Of Motion 5:23
3 Oshogbo 3:46
4 Dream Inflected 4:19
5 Leaf Writing 5:44
6 Celestial Space 14:32
7 Forest Geometry 3:05
8 Kind Thoughts 8:23
9 Motherless Child 3:57
10 Thankfulness And Joy 7:36
 
Лог создания рипа
Exact Audio Copy V1.0 beta 3 from 29. August 2011
EAC extraction logfile from 11. September 2013, 23:13
Adam Rudolph & Ralph Jones / Yeyi
Used drive : PIONEER DVD-RW DVR-115D Adapter: 0 ID: 0
Read mode : Secure
Utilize accurate stream : Yes
Defeat audio cache : Yes
Make use of C2 pointers : No
Read offset correction : 48
Overread into Lead-In and Lead-Out : No
Fill up missing offset samples with silence : Yes
Delete leading and trailing silent blocks : No
Null samples used in CRC calculations : Yes
Used interface : Installed external ASPI interface
Gap handling : Appended to previous track
Used output format : User Defined Encoder
Selected bitrate : 896 kBit/s
Quality : High
Add ID3 tag : No
Command line compressor : C:\Program Files\Exact Audio Copy\FLAC\FLAC.EXE
Additional command line options : -6 -V -T "ARTIST=%artist%" -T "TITLE=%title%" -T "ALBUM=%albumtitle%" -T "DATE=%year%" -T "TRACKNUMBER=%tracknr%" -T "GENRE=%genre%" -T "COMMENT=%comment%" -T "BAND=%albuminterpret%" -T "COMPOSER=%composer%" %haslyrics%--tag-from-file=LYRICS="%lyricsfile%"%haslyrics% -T "DISCNUMBER=%cdnumber%" -T "TOTALDISCS=%totalcds%" -T "TOTALTRACKS=%numtracks%" %hascover%--picture="%coverfile%"%hascover% %source% -o %dest%
TOC of the extracted CD
Track | Start | Length | Start sector | End sector
---------------------------------------------------------
1 | 0:00.00 | 6:51.59 | 0 | 30883
2 | 6:51.59 | 5:23.36 | 30884 | 55144
3 | 12:15.20 | 3:46.30 | 55145 | 72124
4 | 16:01.50 | 4:18.55 | 72125 | 91529
5 | 20:20.30 | 5:43.43 | 91530 | 117297
6 | 26:03.73 | 14:32.30 | 117298 | 182727
7 | 40:36.28 | 3:05.02 | 182728 | 196604
8 | 43:41.30 | 8:23.08 | 196605 | 234337
9 | 52:04.38 | 3:56.52 | 234338 | 252089
10 | 56:01.15 | 7:36.28 | 252090 | 286317
Track 1
Filename D:\zzz\01 - Nectaric Vibrations.wav
Pre-gap length 0:00:02.00
Peak level 78.6 %
Extraction speed 4.9 X
Track quality 100.0 %
Test CRC 8B4F7365
Copy CRC 8B4F7365
Accurately ripped (confidence 1) [5F22FB4A] (AR v1)
Copy OK
Track 2
Filename D:\zzz\02 - Aspects Of Motion.wav
Peak level 81.1 %
Extraction speed 5.4 X
Track quality 100.0 %
Test CRC 0A788731
Copy CRC 0A788731
Accurately ripped (confidence 1) [A033B633] (AR v1)
Copy OK
Track 3
Filename D:\zzz\03 - Oshogbo.wav
Peak level 78.7 %
Extraction speed 4.9 X
Track quality 99.9 %
Test CRC 2899B4CF
Copy CRC 2899B4CF
Accurately ripped (confidence 1) [F2673DD2] (AR v1)
Copy OK
Track 4
Filename D:\zzz\04 - Dream Inflected.wav
Peak level 93.6 %
Extraction speed 6.1 X
Track quality 100.0 %
Test CRC FC5723C4
Copy CRC FC5723C4
Accurately ripped (confidence 1) [ADC1185F] (AR v1)
Copy OK
Track 5
Filename D:\zzz\05 - Leaf Writing.wav
Peak level 88.4 %
Extraction speed 6.7 X
Track quality 100.0 %
Test CRC D232147F
Copy CRC D232147F
Accurately ripped (confidence 1) [9C053CB4] (AR v1)
Copy OK
Track 6
Filename D:\zzz\06 - Celestial Space.wav
Peak level 90.0 %
Extraction speed 7.8 X
Track quality 100.0 %
Test CRC 64251ACA
Copy CRC 64251ACA
Accurately ripped (confidence 1) [71581ADF] (AR v1)
Copy OK
Track 7
Filename D:\zzz\07 - Forest Geometry.wav
Peak level 81.3 %
Extraction speed 7.3 X
Track quality 100.0 %
Test CRC 220EADA3
Copy CRC 220EADA3
Accurately ripped (confidence 1) [512C1D2D] (AR v1)
Copy OK
Track 8
Filename D:\zzz\08 - Kind Thoughts.wav
Peak level 61.2 %
Extraction speed 8.5 X
Track quality 100.0 %
Test CRC A0CD3301
Copy CRC A0CD3301
Accurately ripped (confidence 1) [22820D09] (AR v1)
Copy OK
Track 9
Filename D:\zzz\09 - Motherless Child.wav
Peak level 70.7 %
Extraction speed 7.2 X
Track quality 99.9 %
Test CRC 958FE6AB
Copy CRC 958FE6AB
Accurately ripped (confidence 1) [2C53EAE8] (AR v1)
Copy OK
Track 10
Filename D:\zzz\10 - Thankfulness And Joy.wav
Peak level 84.9 %
Extraction speed 1.0 X
Track quality 100.0 %
Test CRC AEB915D5
Copy CRC AEB915D5
Accurately ripped (confidence 1) [19BB84E4] (AR v1)
Copy OK
All tracks accurately ripped
No errors occurred
End of status report
==== Log checksum 13FFFBB5606D174D3E5756DDB5AD5703CF31AD46598776DD7373ADC3C8A92A7E ====
 
Содержание индексной карты (.CUE)
REM GENRE "Ethnic Jazz"
REM DATE 2010
REM DISCID 7E0EE90A
REM COMMENT "ExactAudioCopy v1.0b3"
PERFORMER "Adam Rudolph & Ralph Jones"
TITLE "Yeyi"
FILE "01 - Nectaric Vibrations.wav" WAVE
TRACK 01 AUDIO
TITLE "Nectaric Vibrations"
PERFORMER "Adam Rudolph & Ralph Jones"
FLAGS DCP
INDEX 01 00:00:00
FILE "02 - Aspects Of Motion.wav" WAVE
TRACK 02 AUDIO
TITLE "Aspects Of Motion"
PERFORMER "Adam Rudolph & Ralph Jones"
FLAGS DCP
INDEX 01 00:00:00
FILE "03 - Oshogbo.wav" WAVE
TRACK 03 AUDIO
TITLE "Oshogbo"
PERFORMER "Adam Rudolph & Ralph Jones"
FLAGS DCP
INDEX 01 00:00:00
FILE "04 - Dream Inflected.wav" WAVE
TRACK 04 AUDIO
TITLE "Dream Inflected"
PERFORMER "Adam Rudolph & Ralph Jones"
FLAGS DCP
INDEX 01 00:00:00
FILE "05 - Leaf Writing.wav" WAVE
TRACK 05 AUDIO
TITLE "Leaf Writing"
PERFORMER "Adam Rudolph & Ralph Jones"
FLAGS DCP
INDEX 01 00:00:00
FILE "06 - Celestial Space.wav" WAVE
TRACK 06 AUDIO
TITLE "Celestial Space"
PERFORMER "Adam Rudolph & Ralph Jones"
FLAGS DCP
INDEX 01 00:00:00
FILE "07 - Forest Geometry.wav" WAVE
TRACK 07 AUDIO
TITLE "Forest Geometry"
PERFORMER "Adam Rudolph & Ralph Jones"
FLAGS DCP
INDEX 01 00:00:00
FILE "08 - Kind Thoughts.wav" WAVE
TRACK 08 AUDIO
TITLE "Kind Thoughts"
PERFORMER "Adam Rudolph & Ralph Jones"
FLAGS DCP
INDEX 01 00:00:00
FILE "09 - Motherless Child.wav" WAVE
TRACK 09 AUDIO
TITLE "Motherless Child"
PERFORMER "Adam Rudolph & Ralph Jones"
FLAGS DCP
INDEX 01 00:00:00
FILE "10 - Thankfulness And Joy.wav" WAVE
TRACK 10 AUDIO
TITLE "Thankfulness And Joy"
PERFORMER "Adam Rudolph & Ralph Jones"
FLAGS DCP
INDEX 01 00:00:00
 
Лог проверки качества
d:\>d:\aucdtect -d/-m0 d:\zzz\*.wav
auCDtect: CD records authenticity detector, version 0.8.2
Copyright (c) 2004 Oleg Berngardt. All rights reserved.
Copyright (c) 2004 Alexander Djourik. All rights reserved.
------------------------------------------------------------
Processing file: [01. Nectaric Vibrations.wav]
------------------------------------------------------------
This track looks like CDDA with probability 100%
------------------------------------------------------------
Processing file: [02. Aspects Of Motion.wav]
------------------------------------------------------------
This track looks like CDDA with probability 100%
------------------------------------------------------------
Processing file: [03. Oshogbo.wav]
------------------------------------------------------------
This track looks like CDDA with probability 100%
------------------------------------------------------------
Processing file: [04. Dream Inflected.wav]
------------------------------------------------------------
This track looks like CDDA with probability 100%
------------------------------------------------------------
Processing file: [05. Leaf Writing.wav]
------------------------------------------------------------
This track looks like CDDA with probability 100%
------------------------------------------------------------
Processing file: [06. Celestial Space.wav]
------------------------------------------------------------
This track looks like CDDA with probability 100%
------------------------------------------------------------
Processing file: [07. Forest Geometry.wav]
------------------------------------------------------------
This track looks like CDDA with probability 100%
------------------------------------------------------------
Processing file: [08. Kind Thoughts.wav]
------------------------------------------------------------
This track looks like CDDA with probability 100%
------------------------------------------------------------
Processing file: [09. Motherless Child.wav]
------------------------------------------------------------
This track looks like CDDA with probability 100%
------------------------------------------------------------
Processing file: [10. Thankfulness And Joy.wav]
------------------------------------------------------------
This track looks like CDDA with probability 100%
------------------------------------------------------------
Final Conclusion:
------------------------------------------------------------
These tracks looks like CDDA with probability 100%
Доп. информация:
 
Meta Records Review
Great improvisers can create scintillating music in any situation or setting. But as Adam Rudolph can attest, the ability to transcend music and achieve something truly profound requires a sort of mysterious chemistry that comes along in precious few instances over the course of a musician’s lifetime. “We can’t underestimate the element of alchemy,” Rudolph says.
On Yeyi, one of two new releases on his own Meta Records label, the master percussionist celebrates his over 30-year partnership with multi-instrumentalist Ralph Jones (the second release, Toward the Unknown, features another longtime collaborator, the legendary saxophonist Yusef Lateef). Throughout the album’s ten tracks, Jones employs an arsenal of woodwind instruments to complement Rudolph’s percussion battery in a wide-ranging, deeply spiritual dialogue. Rudolph and Jones’ partnership dates back to the 1974 Ann Arbor Blues and Jazz Festival, where they performed on a bill that also included Sun Ra and James Brown. They were brought together by trumpeter Charles Moore, with whom they later cofounded the Eternal Wind quartet.
“We understand each other on a creative level and on a philosophical level,” Rudolph says, “which means that we have a profound kind of freedom. I like to work with musicians who understand what I’m doing, not just musically but metaphorically.” Rudolph refers to Jones as “the greatest woodwind player you may not have heard of,” and the description is apt. Jones’ wide-ranging career has included recordings and performances with the likes of Lateef, Pharaoh Sanders, Ahmed Abdul Malik, Ella Fitzgerald, Wadada Leo Smith, Ken Cox of the MC5, and his group, The Seekers of Truth Revolutionary Ensemble. In addition, he has performed in Rudolph’s ensembles Moving Pictures and the Go: Organic Orchestra.
The intuitive language that the two improvisers have developed over their lengthy collaboration are fully in evidence on Yeyi. Subtitled “A Wordless Psalm of Prototypical Vibrations”, the CD is an offering of thanks, a communion with the natural world both outer and inner. “It’s not trying to evoke nature itself so much as evoking naturalness,” Rudolph says. “The natural state of who we are, the real us as spiritual beings. You can still be in tune with your naturalness in the 21st century, living in New York City.”
“Yeyi” refers to the yodeling of the Mbuti pygmies, one of the oldest indigenous people of the Kongo region of Africa. Their inspiration on the music is twofold, according to Rudolph: one is in the communal harmony with nature towards which the artists strive, and the second is in the legacy of a culture that has rippled outwards over continents and generations, through the African-American musical influences that Rudolph and Jones draw upon.
Over the course of the ten explorations that make up Yeyi, Rudolph and Jones draw from a pool of shared knowledge – musical studies, each other’s languages, their own prior interactions – to communicate with a penetrating intensity. “We not only have a long temporal history but a huge body of compositions and rhythmic and intervallic approaches that we can call upon,” Rudolph says. “And those elements are present in a deconstructed form so that we can construct and orchestrate them any way we want to in the moment based upon listening to each other.”
Those common elements include a variety of musical traditions, including African and Indonesian music, and raga, and compositions both traditional and original, as when the two revisit “Oshogbo”, the piece which opened Dream Garden, the most recent release by Moving Pictures. Disparate influences can also cross streams, as when Jones conjures the traditional spiritual "Sometimes I Feel Like a Motherless Child" on the ney, a Middle Eastern flute.
Returning to the subject of that sonic alchemy that this recording so amply demonstrate, Rudolph likens the discovery of a musical soulmate to a romantic one. “You could list of reasons why you marry someone, but it comes down to a feeling. It’s something that you know from the get-go but also something that develops over time. Ultimately it’s a mystery.”
 
Состав
Composed By – Adam Rudolph, Ralph Jones
Congas, Djembe, Idiophone, Kalimba [Thumb Piano], Gong, Slit Drum, Glockenspiel, Percussion, Sintir, Melodica, Reeds [Berber Reed Horn], Horn [Overtone Horn], Voice [Multiphonic Singing] – Adam Rudolph
Flute [Alto, C], Bass Clarinet, Tenor Saxophone, Soprano Saxophone, Ney, Reeds [Hichiriki, Hulusi], Flute [Umtshingo, Bamboo], Idiophone [Bamboo Sticks], Shaker – Ralph Jones
Recorded live in concert April 16th, 2009 at Delta College Theatre, Michigan
Any questions -> support@pro-jazz.com. По всем вопросам пишите -> support@pro-jazz.com
18:06
280
Нет комментариев. Ваш будет первым!