Вы используете незарегистрированную версию компонента "Вкладки"!

Поиск

(Free Jazz, Ethnic Jazz) Adam Rudolph & Ralph M. Jones - Merely A Traveler On The Cosmic Path - 2012, FLAC (tracks+.cue), lossless

(Free Jazz, Ethnic Jazz) Adam Rudolph & Ralph M. Jones - Merely A Traveler On The Cosmic Path - 2012, FLAC (tracks+.cue), lossless
Треклист:
Adam Rudolph & Ralph M. Jones / Merely A Traveler On The Cosmic Path
Жанр: Free Jazz, Ethnic Jazz
Страна-производитель диска: US
Год издания: 2012
Издатель (лейбл): Meta Records
Номер по каталогу: META 015
Страна: US
Аудиокодек: FLAC (*.flac)
Тип рипа: tracks+.cue
Битрейт аудио: lossless
Продолжительность: 38:10
Источник (релизер): свой фирменный диск
Наличие сканов в содержимом раздачи:
Треклист:
1) Spirit Voices 1:35
2) Storytelling 5:31
3) Illuminated 2:48
4) Rainbow Rivers of Skin 1:53
5) Fragrance of Compassion 2:51
6) Ballad of Questions 2:47
7) Refracted Splendor 4:14
8) Spectrum 2:09
9) Calligraphic 2:05
10) Wanderings 4:12
11) Starlit 2:09
12) The Poetry of You 1:51
13) Those Who Know, Will Know 1:45
14) (Who is?) Love's Lover 2:33
 
Лог создания рипа
Exact Audio Copy V1.0 beta 3 from 29. August 2011
EAC extraction logfile from 10. September 2013, 23:47
Adam Rudolph & Ralph M. Jones / Merely A Traveler On The Cosmic Path
Used drive : PIONEER DVD-RW DVR-115D Adapter: 0 ID: 0
Read mode : Secure
Utilize accurate stream : Yes
Defeat audio cache : Yes
Make use of C2 pointers : No
Read offset correction : 48
Overread into Lead-In and Lead-Out : No
Fill up missing offset samples with silence : Yes
Delete leading and trailing silent blocks : No
Null samples used in CRC calculations : Yes
Used interface : Installed external ASPI interface
Gap handling : Appended to previous track
Used output format : User Defined Encoder
Selected bitrate : 896 kBit/s
Quality : High
Add ID3 tag : No
Command line compressor : C:\Program Files\Exact Audio Copy\FLAC\FLAC.EXE
Additional command line options : -6 -V -T "ARTIST=%artist%" -T "TITLE=%title%" -T "ALBUM=%albumtitle%" -T "DATE=%year%" -T "TRACKNUMBER=%tracknr%" -T "GENRE=%genre%" -T "COMMENT=%comment%" -T "BAND=%albuminterpret%" -T "COMPOSER=%composer%" %haslyrics%--tag-from-file=LYRICS="%lyricsfile%"%haslyrics% -T "DISCNUMBER=%cdnumber%" -T "TOTALDISCS=%totalcds%" -T "TOTALTRACKS=%numtracks%" %hascover%--picture="%coverfile%"%hascover% %source% -o %dest%
TOC of the extracted CD
Track | Start | Length | Start sector | End sector
---------------------------------------------------------
1 | 0:00.00 | 1:34.34 | 0 | 7083
2 | 1:34.34 | 5:20.60 | 7084 | 31143
3 | 6:55.19 | 2:47.55 | 31144 | 43723
4 | 9:42.74 | 1:53.05 | 43724 | 52203
5 | 11:36.04 | 2:50.33 | 52204 | 64986
6 | 14:26.37 | 2:47.00 | 64987 | 77511
7 | 17:13.37 | 4:13.52 | 77512 | 96538
8 | 21:27.14 | 2:09.14 | 96539 | 106227
9 | 23:36.28 | 2:05.31 | 106228 | 115633
10 | 25:41.59 | 4:11.56 | 115634 | 134514
11 | 29:53.40 | 2:08.58 | 134515 | 144172
12 | 32:02.23 | 1:50.59 | 144173 | 152481
13 | 33:53.07 | 1:44.61 | 152482 | 160342
14 | 35:37.68 | 2:33.03 | 160343 | 171820
Track 1
Filename D:\zzz\01 - Spirit Voices.wav
Pre-gap length 0:00:02.00
Peak level 85.7 %
Extraction speed 3.6 X
Track quality 100.0 %
Test CRC 4BE4D817
Copy CRC 4BE4D817
Accurately ripped (confidence 2) [6D5C51C3] (AR v2)
Copy OK
Track 2
Filename D:\zzz\02 - Storytelling.wav
Pre-gap length 0:00:02.00
Peak level 89.1 %
Extraction speed 4.9 X
Track quality 100.0 %
Test CRC CC98697A
Copy CRC CC98697A
Accurately ripped (confidence 2) [08BE3FB2] (AR v2)
Copy OK
Track 3
Filename D:\zzz\03 - Illuminated.wav
Pre-gap length 0:00:02.00
Peak level 91.5 %
Extraction speed 4.9 X
Track quality 100.0 %
Test CRC 0AB43D68
Copy CRC 0AB43D68
Accurately ripped (confidence 2) [786187AF] (AR v2)
Copy OK
Track 4
Filename D:\zzz\04 - Rainbow Rivers Of Skin.wav
Pre-gap length 0:00:02.00
Peak level 81.8 %
Extraction speed 4.8 X
Track quality 100.0 %
Test CRC C2F0C3A2
Copy CRC C2F0C3A2
Accurately ripped (confidence 2) [C22C0F22] (AR v2)
Copy OK
Track 5
Filename D:\zzz\05 - Fragrance Of Compassion.wav
Pre-gap length 0:00:02.00
Peak level 89.5 %
Extraction speed 5.4 X
Track quality 100.0 %
Test CRC 717F8DDF
Copy CRC 717F8DDF
Accurately ripped (confidence 2) [1564005E] (AR v2)
Copy OK
Track 6
Filename D:\zzz\06 - Ballad Of Questions.wav
Pre-gap length 0:00:03.00
Peak level 58.7 %
Extraction speed 4.8 X
Track quality 99.9 %
Test CRC 0FC9C795
Copy CRC 0FC9C795
Accurately ripped (confidence 2) [834D0AE3] (AR v2)
Copy OK
Track 7
Filename D:\zzz\07 - Refracted Splendor.wav
Pre-gap length 0:00:03.00
Peak level 89.7 %
Extraction speed 6.2 X
Track quality 100.0 %
Test CRC 6436070E
Copy CRC 6436070E
Accurately ripped (confidence 2) [51129AFB] (AR v2)
Copy OK
Track 8
Filename D:\zzz\08 - Spectrum.wav
Pre-gap length 0:00:02.00
Peak level 94.5 %
Extraction speed 5.7 X
Track quality 100.0 %
Test CRC 5277B807
Copy CRC 5277B807
Accurately ripped (confidence 2) [AE28B088] (AR v2)
Copy OK
Track 9
Filename D:\zzz\09 - Calligraphic.wav
Pre-gap length 0:00:03.00
Peak level 88.5 %
Extraction speed 5.8 X
Track quality 100.0 %
Test CRC 613A3DE1
Copy CRC 613A3DE1
Accurately ripped (confidence 2) [801AFC92] (AR v2)
Copy OK
Track 10
Filename D:\zzz\10 - Wanderings.wav
Pre-gap length 0:00:03.00
Peak level 88.7 %
Extraction speed 6.8 X
Track quality 100.0 %
Test CRC 3F79E427
Copy CRC 3F79E427
Accurately ripped (confidence 2) [581013EE] (AR v2)
Copy OK
Track 11
Filename D:\zzz\11 - Starlit.wav
Pre-gap length 0:00:03.00
Peak level 92.6 %
Extraction speed 5.1 X
Track quality 99.9 %
Test CRC 085413FD
Copy CRC 085413FD
Accurately ripped (confidence 2) [2E5A3401] (AR v2)
Copy OK
Track 12
Filename D:\zzz\12 - The Poetry Of You.wav
Pre-gap length 0:00:03.00
Peak level 84.2 %
Extraction speed 6.1 X
Track quality 100.0 %
Test CRC 0B6FE8F8
Copy CRC 0B6FE8F8
Accurately ripped (confidence 2) [8FFF31BA] (AR v2)
Copy OK
Track 13
Filename D:\zzz\13 - Those Who Know, Will Know.wav
Pre-gap length 0:00:02.00
Peak level 88.2 %
Extraction speed 6.1 X
Track quality 100.0 %
Test CRC 2967B962
Copy CRC 2967B962
Accurately ripped (confidence 2) [07F2CD76] (AR v2)
Copy OK
Track 14
Filename D:\zzz\14 - (Who Is) Love's Lover.wav
Pre-gap length 0:00:03.00
Peak level 63.9 %
Extraction speed 5.7 X
Track quality 99.9 %
Test CRC 4D9CB68E
Copy CRC 4D9CB68E
Accurately ripped (confidence 2) [C86DEDBB] (AR v2)
Copy OK
All tracks accurately ripped
No errors occurred
End of status report
==== Log checksum 4628C38A510059D48468A207196F7AA85B0C6440351C7BF0061248C69D496F7D ====
 
Содержание индексной карты (.CUE)
REM GENRE "Ethnic Jazz"
REM DATE 2012
REM DISCID D208F20E
REM COMMENT "ExactAudioCopy v1.0b3"
PERFORMER "Adam Rudolph & Ralph M. Jones"
TITLE "Merely A Traveler On The Cosmic Path"
FILE "01 - Spirit Voices.wav" WAVE
TRACK 01 AUDIO
TITLE "Spirit Voices"
PERFORMER "Adam Rudolph & Ralph M. Jones"
FLAGS DCP
INDEX 01 00:00:00
TRACK 02 AUDIO
TITLE "Storytelling"
PERFORMER "Adam Rudolph & Ralph M. Jones"
FLAGS DCP
INDEX 00 01:32:34
FILE "02 - Storytelling.wav" WAVE
INDEX 01 00:00:00
TRACK 03 AUDIO
TITLE "Illuminated"
PERFORMER "Adam Rudolph & Ralph M. Jones"
FLAGS DCP
INDEX 00 05:18:60
FILE "03 - Illuminated.wav" WAVE
INDEX 01 00:00:00
TRACK 04 AUDIO
TITLE "Rainbow Rivers Of Skin"
PERFORMER "Adam Rudolph & Ralph M. Jones"
FLAGS DCP
INDEX 00 02:45:55
FILE "04 - Rainbow Rivers Of Skin.wav" WAVE
INDEX 01 00:00:00
TRACK 05 AUDIO
TITLE "Fragrance Of Compassion"
PERFORMER "Adam Rudolph & Ralph M. Jones"
FLAGS DCP
INDEX 00 01:51:05
FILE "05 - Fragrance Of Compassion.wav" WAVE
INDEX 01 00:00:00
TRACK 06 AUDIO
TITLE "Ballad Of Questions"
PERFORMER "Adam Rudolph & Ralph M. Jones"
FLAGS DCP
INDEX 00 02:47:33
FILE "06 - Ballad Of Questions.wav" WAVE
INDEX 01 00:00:00
TRACK 07 AUDIO
TITLE "Refracted Splendor"
PERFORMER "Adam Rudolph & Ralph M. Jones"
FLAGS DCP
INDEX 00 02:44:00
FILE "07 - Refracted Splendor.wav" WAVE
INDEX 01 00:00:00
TRACK 08 AUDIO
TITLE "Spectrum"
PERFORMER "Adam Rudolph & Ralph M. Jones"
FLAGS DCP
INDEX 00 04:11:52
FILE "08 - Spectrum.wav" WAVE
INDEX 01 00:00:00
TRACK 09 AUDIO
TITLE "Calligraphic"
PERFORMER "Adam Rudolph & Ralph M. Jones"
FLAGS DCP
INDEX 00 02:06:14
FILE "09 - Calligraphic.wav" WAVE
INDEX 01 00:00:00
TRACK 10 AUDIO
TITLE "Wanderings"
PERFORMER "Adam Rudolph & Ralph M. Jones"
FLAGS DCP
INDEX 00 02:02:31
FILE "10 - Wanderings.wav" WAVE
INDEX 01 00:00:00
TRACK 11 AUDIO
TITLE "Starlit"
PERFORMER "Adam Rudolph & Ralph M. Jones"
FLAGS DCP
INDEX 00 04:08:56
FILE "11 - Starlit.wav" WAVE
INDEX 01 00:00:00
TRACK 12 AUDIO
TITLE "The Poetry Of You"
PERFORMER "Adam Rudolph & Ralph M. Jones"
FLAGS DCP
INDEX 00 02:05:58
FILE "12 - The Poetry Of You.wav" WAVE
INDEX 01 00:00:00
TRACK 13 AUDIO
TITLE "Those Who Know, Will Know"
PERFORMER "Adam Rudolph & Ralph M. Jones"
FLAGS DCP
INDEX 00 01:48:59
FILE "13 - Those Who Know, Will Know.wav" WAVE
INDEX 01 00:00:00
TRACK 14 AUDIO
TITLE "(Who Is?) Love's Lover"
PERFORMER "Adam Rudolph & Ralph M. Jones"
FLAGS DCP
INDEX 00 01:41:61
FILE "14 - (Who Is) Love's Lover.wav" WAVE
INDEX 01 00:00:00
 
Лог проверки качества
d:\>d:\aucdtect -d/-m0 d:\zzz\*.wav
auCDtect: CD records authenticity detector, version 0.8.2
Copyright (c) 2004 Oleg Berngardt. All rights reserved.
Copyright (c) 2004 Alexander Djourik. All rights reserved.
------------------------------------------------------------
Processing file: [01. Spirit Voices.wav]
------------------------------------------------------------
This track looks like CDDA with probability 100%
------------------------------------------------------------
Processing file: [02. Storytelling.wav]
------------------------------------------------------------
This track looks like CDDA with probability 99%
------------------------------------------------------------
Processing file: [03. Illuminated.wav]
------------------------------------------------------------
This track looks like CDDA with probability 100%
------------------------------------------------------------
Processing file: [04. Rainbow Rivers Of Skin.wav]
------------------------------------------------------------
This track looks like CDDA with probability 100%
------------------------------------------------------------
Processing file: [05. Fragrance Of Compassion.wav]
------------------------------------------------------------
This track looks like CDDA with probability 99%
------------------------------------------------------------
Processing file: [06. Ballad Of Questions.wav]
------------------------------------------------------------
This track looks like MPEG with probability 89%
------------------------------------------------------------
Processing file: [07. Refracted Splendor.wav]
------------------------------------------------------------
This track looks like CDDA with probability 100%
------------------------------------------------------------
Processing file: [08. Spectrum.wav]
------------------------------------------------------------
This track looks like CDDA with probability 100%
------------------------------------------------------------
Processing file: [09. Calligraphic.wav]
------------------------------------------------------------
This track looks like MPEG with probability 91%
------------------------------------------------------------
Processing file: [10. Wanderings.wav]
------------------------------------------------------------
This track looks like CDDA with probability 100%
------------------------------------------------------------
Processing file: [11. Starlit.wav]
------------------------------------------------------------
This track looks like CDDA with probability 99%
------------------------------------------------------------
Processing file: [12. The Poetry Of You.wav]
------------------------------------------------------------
This track looks like MPEG with probability 91%
------------------------------------------------------------
Processing file: [13. Those Who Know, Will Know.wav]
------------------------------------------------------------
This track looks like CDDA with probability 100%
------------------------------------------------------------
Processing file: [14. (Who Is) Love's Lover.wav]
------------------------------------------------------------
This track looks like CDDA with probability 99%
------------------------------------------------------------
Final Conclusion:
------------------------------------------------------------
These tracks looks like CDDA with probability 100%
Доп. информация:
 
Meta Records Review
With Merely A Traveler on the Cosmic Path, Adam Rudolph and Ralph Jones present their first studio recording of their duet. Their first recorded collaboration, Yeyi was voted one of the years top 10 CDs by 2011 NY City Jazz Record. Dusty Groove called it "A dreamlike flow of elemental sounds and masterful moods” and Downtown Music Gallery said: “This is music to heal troubled minds and damaged souls. Yes indeed."
Great improvisers can create scintillating music in any situation or setting. But as Adam Rudolph can attest, the ability to transcend music and achieve something truly profound requires a sort of mysterious chemistry that comes along in precious few instances over the course of a musician’s lifetime.
“We can’t underestimate the element of alchemy,” Rudolph says.
With this new release on his own Meta Records label, the master percussionist celebrates a decades-long partnerships in which he’s found just that kind of alchemy. On Merely A Traveler on the Cosmic Path, Ralph Jones employs an arsenal of woodwind instruments to complement Rudolph’s percussion battery in a wide-ranging, deeply spiritual dialogue.
Born in 1955, handrummer, percussionist, composer, multi instrumentalist and improviser Rudolph has been hailed as “a pioneer in world music” by the New York Times. Currently he composes for his groups Moving Pictures, Hu: Vibrational, and Go: Organic Orchestra, a 15 – 50 piece ensemble for which he has developed an original music notation and conducting system. Over the past 25 years he has developed a unique syncretic approach to hand drumming in creative collaborations with outstanding artists of cross-cultural and improvised music, including Don Cherry, Jon Hassel, L. Shankar, Pharaoh Sanders, Fred Anderson, Hassan Hakmoun and Wadada Leo Smith among others.
Rudolph and Jones’ partnership dates back more then thirty years to the 1974 Ann Arbor Blues and Jazz Festival, where they performed on a bill that also included Sun Ra and James Brown. They were brought together by trumpeter Charles Moore, with whom they later cofounded the Eternal Wind quartet.
“I feel the most complete sense of understanding with Ralph,” Rudolph says, “which means that we have a profound kind of freedom. We understand each other on a creative level and on a philosophical level. I like to work with musicians who understand what I’m doing, not just musically but metaphorically.”
Rudolph’s refers to Jones as “the greatest woodwind player you may not have heard of,” and the description is apt. Jones’ wide-ranging career has included recordings and performances with the likes of Yusef Lateef, Pharaoh Sanders, Ahmed Abdul Malik, Ella Fitzgerald, Wadada Leo Smith, Ken Cox, Detroit’s MC5, and his own group, The Seekers of Truth Revolutionary Ensemble.
In addition, he has performed in Rudolph’s ensembles Moving Pictures and the Go: Organic Orchestra. The intuitive language that the two improvisers have developed over their lengthy collaboration is fully in evidence on Merely A Traveler on the Cosmic Path. Beautifully recorded and mixed in a state of the art studio, the music also includes sound samples of the musicians themselves made by Alexander Overington and Jeff Rona. Rudolph wove these samples into the fabric of the music to create an expanded and fascinating orchestration that sounds prototypical yet natural.
“It’s not trying to evoke nature itself so much as evoking naturalness,” Rudolph says. “The natural state of who we are, the real us as spiritual beings. You can still strive to be in tune with your naturalness in the 21st century, living in New York City.”
Merely a Traveler on the Cosmic Path (“N’zungi a nzilla” in KI-Kongo) is a Lembe initiatory proverb and refers to a way of living within nature towards which the artists strive. It also references the legacy of a culture that has rippled outwards to Kongo and from there over continents and generations, through to the African-American musical influences that Rudolph and Jones draw upon.
Over the course of the fourteen explorations that make up Merely a Traveler, Rudolph and Jones draw from a pool of shared knowledge – musical studies, each other’s music languages, their own prior interactions – to communicate with a penetrating and intuitive intensity.
“Over our long history of performance and research together we have created an extensive body of compositions and rhythmic and intervallic approaches that we can call upon,” Rudolph says. “And those elements are present in a pure, deconstructed form so that we can construct and orchestrate them any way we imagine to - in the moment - based upon listening to each other.”
Returning to the subject of that sonic alchemy that this recording so amply demonstrates, Rudolph likens the discovery of a musical soul mate to a romantic one. “You could list of reasons why you marry someone, but it comes down to a feeling. It’s something that you know from the get-go but also something that develops over time. Ultimately it’s a mystery.”
 
Состав
Adam Rudolph: Membranophones and Idiophones: handrumset (kongos, djembe, tarijas, zabumba), thumb piano, cup gongs, gongs, kongo slit drum, glockenspiel, percussion and percussion samples, electronics and sintir.
Ralph M. Jones: Aerophones: tenor & soprano saxophones, alto & c flutes, bass clarinet, ney, hulusi, umtshingo, bamboo flutes and piano.
По всем вопросам пишите личное сообщение пользователю M0p94ok.
18:06
299
Нет комментариев. Ваш будет первым!