Вы используете незарегистрированную версию компонента "Вкладки"!

Поиск

(Free Jazz, Ethnic Jazz, Big Band) Adam Rudolph Go: Organic Orchestra - Can You Imagine... The Sound Of A Dream - 2011, FLAC (tracks+.cue), lossless

(Free Jazz, Ethnic Jazz, Big Band) Adam Rudolph Go: Organic Orchestra - Can You Imagine... The Sound Of A Dream - 2011, FLAC (tracks+.cue), lossless
Треклист:
Adam Rudolph Go: Organic Orchestra / Can You Imagine... The Sound Of A Dream
Жанр: Free Jazz, Ethnic Jazz, Big Band
Страна-производитель диска: US
Год издания: 2011
Издатель (лейбл): Meta Records
Номер по каталогу: META 014
Страна: US
Аудиокодек: FLAC (*.flac)
Тип рипа: tracks+.cue
Битрейт аудио: lossless
Продолжительность: 68:22
Источник (релизер): свой фирменный диск
Наличие сканов в содержимом раздачи:
Треклист:
1) GLIMPSE AND DEPARTURE 5:28
2) DANCE DRAMA PART 3 (Green) 6:06
3) AMBROSIA OFFERING 2:34
4) SLIP OF SHADOWS 5:02
5) LAMENT AND REMEMBRANCE 6:53
6) LOVE'S LIGHT 6:35
7) WHITE SKY, BLACK CLOUDS 3:23
8) DANCE DRAMA PART 3 (Blue) 2:45
9) TREELINES 5:35
10) NEITHER MIRAGE NOR DEATH 1:27
11) TO RAFTER, TO SKYLIGHT 4:37
12) MURMUR AND DUST 2:08
13) DANCE DRAMA PART 3 (Red) 2:54
14) DANCE DRAMA PART 4 3:43
15) WING SWEPT 2:07
16) GLOW AND ORBIT 1:41
17) DAWN REDWOODS 3:33
18) NASCENCE 1:51
 
Лог создания рипа
Exact Audio Copy V1.0 beta 3 from 29. August 2011
EAC extraction logfile from 12. September 2013, 22:38
Adam Rudolph Go: Organic Orchestra / Can You Imagine... The Sound Of A Dream
Used drive : PIONEER DVD-RW DVR-115D Adapter: 0 ID: 0
Read mode : Secure
Utilize accurate stream : Yes
Defeat audio cache : Yes
Make use of C2 pointers : No
Read offset correction : 48
Overread into Lead-In and Lead-Out : No
Fill up missing offset samples with silence : Yes
Delete leading and trailing silent blocks : No
Null samples used in CRC calculations : Yes
Used interface : Installed external ASPI interface
Gap handling : Appended to previous track
Used output format : User Defined Encoder
Selected bitrate : 896 kBit/s
Quality : High
Add ID3 tag : No
Command line compressor : C:\Program Files\Exact Audio Copy\FLAC\FLAC.EXE
Additional command line options : -6 -V -T "ARTIST=%artist%" -T "TITLE=%title%" -T "ALBUM=%albumtitle%" -T "DATE=%year%" -T "TRACKNUMBER=%tracknr%" -T "GENRE=%genre%" -T "COMMENT=%comment%" -T "BAND=%albuminterpret%" -T "COMPOSER=%composer%" %haslyrics%--tag-from-file=LYRICS="%lyricsfile%"%haslyrics% -T "DISCNUMBER=%cdnumber%" -T "TOTALDISCS=%totalcds%" -T "TOTALTRACKS=%numtracks%" %hascover%--picture="%coverfile%"%hascover% %source% -o %dest%
TOC of the extracted CD
Track | Start | Length | Start sector | End sector
---------------------------------------------------------
1 | 0:00.00 | 5:28.04 | 0 | 24603
2 | 5:28.04 | 6:06.33 | 24604 | 52086
3 | 11:34.37 | 2:33.56 | 52087 | 63617
4 | 14:08.18 | 5:01.63 | 63618 | 86255
5 | 19:10.06 | 6:53.05 | 86256 | 117235
6 | 26:03.11 | 6:35.00 | 117236 | 146860
7 | 32:38.11 | 3:22.39 | 146861 | 162049
8 | 36:00.50 | 2:45.22 | 162050 | 174446
9 | 38:45.72 | 5:35.01 | 174447 | 199572
10 | 44:20.73 | 1:27.18 | 199573 | 206115
11 | 45:48.16 | 4:37.22 | 206116 | 226912
12 | 50:25.38 | 2:07.54 | 226913 | 236491
13 | 52:33.17 | 2:54.13 | 236492 | 249554
14 | 55:27.30 | 3:43.14 | 249555 | 266293
15 | 59:10.44 | 2:07.11 | 266294 | 275829
16 | 61:17.55 | 1:40.37 | 275830 | 283366
17 | 62:58.17 | 3:33.19 | 283367 | 299360
18 | 66:31.36 | 1:50.44 | 299361 | 307654
Track 1
Filename D:\zzz\01 - Glimpse And Departure.wav
Pre-gap length 0:00:02.00
Peak level 99.3 %
Extraction speed 4.8 X
Track quality 100.0 %
Test CRC 6484607B
Copy CRC 6484607B
Cannot be verified as accurate (confidence 1) [3605BCF0], AccurateRip returned [D91D2C4A] (AR v2)
Copy OK
Track 2
Filename D:\zzz\02 - Dance Drama Part 3 (Green).wav
Pre-gap length 0:00:02.00
Peak level 100.0 %
Extraction speed 5.5 X
Track quality 100.0 %
Test CRC 5E0CD9B8
Copy CRC 5E0CD9B8
Accurately ripped (confidence 1) [98FC0A2C] (AR v1)
Copy OK
Track 3
Filename D:\zzz\03 - Ambrosia Offering.wav
Pre-gap length 0:00:02.00
Peak level 94.4 %
Extraction speed 5.2 X
Track quality 100.0 %
Test CRC 9C5F0509
Copy CRC 9C5F0509
Accurately ripped (confidence 1) [3F6BF8A0] (AR v1)
Copy OK
Track 4
Filename D:\zzz\04 - Slip Of Shadows.wav
Pre-gap length 0:00:02.00
Peak level 94.4 %
Extraction speed 6.1 X
Track quality 100.0 %
Test CRC D57E28B9
Copy CRC D57E28B9
Accurately ripped (confidence 1) [D470BB9D] (AR v1)
Copy OK
Track 5
Filename D:\zzz\05 - Lament And Remembrance.wav
Pre-gap length 0:00:02.00
Peak level 100.0 %
Extraction speed 6.7 X
Track quality 100.0 %
Test CRC 6A319084
Copy CRC 6A319084
Accurately ripped (confidence 1) [ADE0F430] (AR v1)
Copy OK
Track 6
Filename D:\zzz\06 - Love's Light.wav
Pre-gap length 0:00:01.00
Peak level 94.4 %
Extraction speed 7.2 X
Track quality 100.0 %
Test CRC DEAD51E2
Copy CRC DEAD51E2
Accurately ripped (confidence 1) [8F34341A] (AR v1)
Copy OK
Track 7
Filename D:\zzz\07 - White Sky, Black Clouds.wav
Pre-gap length 0:00:02.00
Peak level 94.3 %
Extraction speed 6.1 X
Track quality 99.9 %
Test CRC CA974F07
Copy CRC CA974F07
Accurately ripped (confidence 1) [A041859A] (AR v1)
Copy OK
Track 8
Filename D:\zzz\08 - Dance Drama Part 3 (Blue).wav
Pre-gap length 0:00:01.00
Peak level 100.0 %
Extraction speed 7.0 X
Track quality 100.0 %
Test CRC AFB89332
Copy CRC AFB89332
Accurately ripped (confidence 1) [79F346C0] (AR v1)
Copy OK
Track 9
Filename D:\zzz\09 - Treelines.wav
Pre-gap length 0:00:02.00
Peak level 93.3 %
Extraction speed 7.8 X
Track quality 100.0 %
Test CRC EB4EC1AF
Copy CRC EB4EC1AF
Accurately ripped (confidence 1) [FC580489] (AR v1)
Copy OK
Track 10
Filename D:\zzz\10 - Neither Mirage Nor Death.wav
Pre-gap length 0:00:02.00
Peak level 94.3 %
Extraction speed 6.2 X
Track quality 100.0 %
Test CRC F772DFA5
Copy CRC F772DFA5
Accurately ripped (confidence 1) [66DAA2C4] (AR v1)
Copy OK
Track 11
Filename D:\zzz\11 - To Rafter, To Skylight.wav
Pre-gap length 0:00:03.00
Peak level 100.0 %
Extraction speed 8.0 X
Track quality 100.0 %
Test CRC 527CF71C
Copy CRC 527CF71C
Accurately ripped (confidence 1) [8A2FE23A] (AR v1)
Copy OK
Track 12
Filename D:\zzz\12 - Murmur And Dust.wav
Pre-gap length 0:00:03.00
Peak level 94.4 %
Extraction speed 7.2 X
Track quality 100.0 %
Test CRC B5C049E6
Copy CRC B5C049E6
Accurately ripped (confidence 1) [5AB09EB3] (AR v1)
Copy OK
Track 13
Filename D:\zzz\13 - Dance Drama Part 3 (Red).wav
Pre-gap length 0:00:02.00
Peak level 100.0 %
Extraction speed 7.8 X
Track quality 100.0 %
Test CRC D971A892
Copy CRC D971A892
Accurately ripped (confidence 1) [4A3FC6A3] (AR v1)
Copy OK
Track 14
Filename D:\zzz\14 - Dance Drama Part 4.wav
Pre-gap length 0:00:03.00
Peak level 100.0 %
Extraction speed 8.3 X
Track quality 100.0 %
Test CRC 0C07E473
Copy CRC 0C07E473
Accurately ripped (confidence 1) [9E54898B] (AR v1)
Copy OK
Track 15
Filename D:\zzz\15 - Wing Swept.wav
Pre-gap length 0:00:02.00
Peak level 94.4 %
Extraction speed 6.3 X
Track quality 99.9 %
Test CRC 9AF5961C
Copy CRC 9AF5961C
Accurately ripped (confidence 1) [38D5C736] (AR v1)
Copy OK
Track 16
Filename D:\zzz\16 - Glow and Orbit.wav
Pre-gap length 0:00:01.00
Peak level 94.4 %
Extraction speed 7.2 X
Track quality 100.0 %
Test CRC 9B84B492
Copy CRC 9B84B492
Accurately ripped (confidence 1) [EE7CF70E] (AR v1)
Copy OK
Track 17
Filename D:\zzz\17 - Dawn Redwoods.wav
Pre-gap length 0:00:02.00
Peak level 94.4 %
Extraction speed 8.5 X
Track quality 100.0 %
Test CRC EE89895A
Copy CRC EE89895A
Accurately ripped (confidence 1) [35D7157A] (AR v1)
Copy OK
Track 18
Filename D:\zzz\18 - Nascence.wav
Pre-gap length 0:00:02.00
Peak level 94.4 %
Extraction speed 6.1 X
Track quality 99.9 %
Test CRC 79B91709
Copy CRC 79B91709
Accurately ripped (confidence 1) [2E404FB7] (AR v1)
Copy OK
17 track(s) accurately ripped
1 track(s) could not be verified as accurate
Some tracks could not be verified as accurate
No errors occurred
End of status report
==== Log checksum 17E8AA69E41D454A42635596BCE5E98FF131E60ECA9F0941B224EA00598D852F ====
 
Содержание индексной карты (.CUE)
REM GENRE "Free Improvisation"
REM DATE 2011
REM DISCID 09100612
REM COMMENT "ExactAudioCopy v1.0b3"
PERFORMER "Adam Rudolph Go: Organic Orchestra"
TITLE "Can You Imagine... The Sound Of A Dream"
FILE "01 - Glimpse And Departure.wav" WAVE
TRACK 01 AUDIO
TITLE "Glimpse And Departure"
PERFORMER "Adam Rudolph Go: Organic Orchestra"
INDEX 01 00:00:00
TRACK 02 AUDIO
TITLE "Dance Drama Part 3 (Green)"
PERFORMER "Adam Rudolph Go: Organic Orchestra"
INDEX 00 05:26:04
FILE "02 - Dance Drama Part 3 (Green).wav" WAVE
INDEX 01 00:00:00
TRACK 03 AUDIO
TITLE "Ambrosia Offering"
PERFORMER "Adam Rudolph Go: Organic Orchestra"
INDEX 00 06:04:33
FILE "03 - Ambrosia Offering.wav" WAVE
INDEX 01 00:00:00
TRACK 04 AUDIO
TITLE "Slip Of Shadows"
PERFORMER "Adam Rudolph Go: Organic Orchestra"
INDEX 00 02:31:56
FILE "04 - Slip Of Shadows.wav" WAVE
INDEX 01 00:00:00
TRACK 05 AUDIO
TITLE "Lament And Remembrance"
PERFORMER "Adam Rudolph Go: Organic Orchestra"
INDEX 00 04:59:63
FILE "05 - Lament And Remembrance.wav" WAVE
INDEX 01 00:00:00
TRACK 06 AUDIO
TITLE "Love's Light"
PERFORMER "Adam Rudolph Go: Organic Orchestra"
INDEX 00 06:52:05
FILE "06 - Love's Light.wav" WAVE
INDEX 01 00:00:00
TRACK 07 AUDIO
TITLE "White Sky, Black Clouds"
PERFORMER "Adam Rudolph Go: Organic Orchestra"
INDEX 00 06:33:00
FILE "07 - White Sky, Black Clouds.wav" WAVE
INDEX 01 00:00:00
TRACK 08 AUDIO
TITLE "Dance Drama Part 3 (Blue)"
PERFORMER "Adam Rudolph Go: Organic Orchestra"
INDEX 00 03:21:39
FILE "08 - Dance Drama Part 3 (Blue).wav" WAVE
INDEX 01 00:00:00
TRACK 09 AUDIO
TITLE "Treelines"
PERFORMER "Adam Rudolph Go: Organic Orchestra"
INDEX 00 02:43:22
FILE "09 - Treelines.wav" WAVE
INDEX 01 00:00:00
TRACK 10 AUDIO
TITLE "Neither Mirage Nor Death"
PERFORMER "Adam Rudolph Go: Organic Orchestra"
INDEX 00 05:33:01
FILE "10 - Neither Mirage Nor Death.wav" WAVE
INDEX 01 00:00:00
TRACK 11 AUDIO
TITLE "To Rafter, To Skylight"
PERFORMER "Adam Rudolph Go: Organic Orchestra"
INDEX 00 01:24:18
FILE "11 - To Rafter, To Skylight.wav" WAVE
INDEX 01 00:00:00
TRACK 12 AUDIO
TITLE "Murmur And Dust"
PERFORMER "Adam Rudolph Go: Organic Orchestra"
INDEX 00 04:34:22
FILE "12 - Murmur And Dust.wav" WAVE
INDEX 01 00:00:00
TRACK 13 AUDIO
TITLE "Dance Drama Part 3 (Red)"
PERFORMER "Adam Rudolph Go: Organic Orchestra"
INDEX 00 02:05:54
FILE "13 - Dance Drama Part 3 (Red).wav" WAVE
INDEX 01 00:00:00
TRACK 14 AUDIO
TITLE "Dance Drama Part 4"
PERFORMER "Adam Rudolph Go: Organic Orchestra"
INDEX 00 02:51:13
FILE "14 - Dance Drama Part 4.wav" WAVE
INDEX 01 00:00:00
TRACK 15 AUDIO
TITLE "Wing Swept"
PERFORMER "Adam Rudolph Go: Organic Orchestra"
INDEX 00 03:41:14
FILE "15 - Wing Swept.wav" WAVE
INDEX 01 00:00:00
TRACK 16 AUDIO
TITLE "Glow and Orbit"
PERFORMER "Adam Rudolph Go: Organic Orchestra"
INDEX 00 02:06:11
FILE "16 - Glow and Orbit.wav" WAVE
INDEX 01 00:00:00
TRACK 17 AUDIO
TITLE "Dawn Redwoods"
PERFORMER "Adam Rudolph Go: Organic Orchestra"
INDEX 00 01:38:37
FILE "17 - Dawn Redwoods.wav" WAVE
INDEX 01 00:00:00
TRACK 18 AUDIO
TITLE "Nascence"
PERFORMER "Adam Rudolph Go: Organic Orchestra"
INDEX 00 03:31:19
FILE "18 - Nascence.wav" WAVE
INDEX 01 00:00:00
 
Лог проверки качества
d:\>d:\aucdtect -d/-m0 d:\zzz\*.wav
auCDtect: CD records authenticity detector, version 0.8.2
Copyright (c) 2004 Oleg Berngardt. All rights reserved.
Copyright (c) 2004 Alexander Djourik. All rights reserved.
------------------------------------------------------------
Processing file: [01. Glimpse And Departure.wav]
------------------------------------------------------------
This track looks like CDDA with probability 100%
------------------------------------------------------------
Processing file: [02. Dance Drama Part 3 (Green).wav]
------------------------------------------------------------
This track looks like CDDA with probability 100%
------------------------------------------------------------
Processing file: [03. Ambrosia Offering.wav]
------------------------------------------------------------
This track looks like CDDA with probability 100%
------------------------------------------------------------
Processing file: [04. Slip Of Shadows.wav]
------------------------------------------------------------
This track looks like CDDA with probability 100%
------------------------------------------------------------
Processing file: [05. Lament And Remembrance.wav]
------------------------------------------------------------
This track looks like MPEG with probability 100%
------------------------------------------------------------
Processing file: [06. Love's Light.wav]
------------------------------------------------------------
This track looks like MPEG with probability 100%
------------------------------------------------------------
Processing file: [07. White Sky, Black Clouds.wav]
------------------------------------------------------------
This track looks like CDDA with probability 99%
------------------------------------------------------------
Processing file: [08. Dance Drama Part 3 (Blue).wav]
------------------------------------------------------------
This track looks like CDDA with probability 100%
------------------------------------------------------------
Processing file: [09. Treelines.wav]
------------------------------------------------------------
This track looks like MPEG with probability 100%
------------------------------------------------------------
Processing file: [10. Neither Mirage Nor Death.wav]
------------------------------------------------------------
This track looks like CDDA with probability 86%
------------------------------------------------------------
Processing file: [11. To Rafter, To Skylight.wav]
------------------------------------------------------------
This track looks like CDDA with probability 100%
------------------------------------------------------------
Processing file: [12. Murmur And Dust.wav]
------------------------------------------------------------
This track looks like CDDA with probability 100%
------------------------------------------------------------
Processing file: [13. Dance Drama Part 3 (Red).wav]
------------------------------------------------------------
This track looks like CDDA with probability 100%
------------------------------------------------------------
Processing file: [14. Dance Drama Part 4.wav]
------------------------------------------------------------
This track looks like CDDA with probability 99%
------------------------------------------------------------
Processing file: [15. Wing Swept.wav]
------------------------------------------------------------
This track looks like MPEG with probability 100%
------------------------------------------------------------
Processing file: [16. Glow and Orbit.wav]
------------------------------------------------------------
This track looks like CDDA with probability 100%
------------------------------------------------------------
Processing file: [17. Dawn Redwoods.wav]
------------------------------------------------------------
This track looks like CDDA with probability 100%
------------------------------------------------------------
Processing file: [18. Nascence.wav]
------------------------------------------------------------
This track looks like CDDA with probability 99%
------------------------------------------------------------
Final Conclusion:
------------------------------------------------------------
Could not qualify the source of these tracks.
Доп. информация:
 
Adam Rudolph Notes
Dreams, like music itself is a bridge and a relationship to that eternal mystery: the presence and intention of the unconscious. They are pure nature; our aboriginal truth. The music on this recording can be considered as dreamlike soundscapes or sonic dreamscapes. Like our dreams, music holds the tension of ambiguity that intimates and points beyond itself towards that realm of mystery. It carries an energy that constructs bridges to those infinite worlds which otherwise lie beyond our rational capacities.
In our dreams, images and feelings rise up unbidden and connected in ways that often seem mysterious. Like emotive dream images, musical sound gestures appear juxtaposed in unusual and sometimes surprising ways. A musical theme might return in another composition just as a face might return again in a different dream, familiar, yet strange. While dreaming, time seems to stretch and contract unpredictably. We experience time in a non-linear way; past, present and future interweave freely. In this music, the middle can become the beginning, the beginning becomes the end and the end can become the middle. Sound gestures, constructed from this kind of emotional and intuitive logic become organic form. Herein some of the music pieces return as a future echo into the past.
 
Состав
GO: ORGANIC ORCHESTRA
Sylvain Leroux – tambin fulani flute, c flute, bamboo flutes
Michel Gentile – c and alto flute, bamboo flutes
Ze Luis Oliveira – c and alto flute, bamboo flutes
Kaoru Watanabe – noh kan, fue, c flute
Steve Gorn – bansuri flute, hichiriki
Peter Apfelbaum – c flute, bamboo flutes, melodica, bamboo sax
Ralph Jones – c and alto flute, bamboo flutes
Batya Sobel – oboe, ocarina and arghul
Sara Schoenbeck – bassoon, sona
Ned Rothenberg – b flat & bass clarinet, shakuhachi
Avram Fefer – b flat & bass clarinet, bamboo flutes
Charles Waters – b flat clarinet, bamboo flutes
David Rothenberg – b flat clarinet, seljefloytes
J.D. Parran – e flat contra bass clarinet, alto flute, ewart double flute, kalimba
Ivan Barenboim - b flat & bass clarinet, bamboo flutes
Stephen Haynes – trumpet, cornet, soprano cornet, conch, flugelhorn,
alto horn, didgeridoo, ewart bamboo horn
Graham Haynes – cornet, flugelhorn, ewart bamboo horn
Peck Allmond – trumpet, peckhorn, conch, kalimba,
Ted Daniel – trumpet, ewart bamboo horn
Peter Zummo – trombone, conch, didgeridoo
Steve Swell – trombone, ewart bamboo horn
Sarah Bernstein – violin
Charles Burnham – violin
Trina Basu – violin
Mark Chung– violin
Elektra Kurtis – violin
Curtis Stewart – violin
Midori Yamamoto – violin
Skye Steele – violin
Rosemarie Hertlein – violin
Jason Kao Hwang – violin, viola
Stephanie Griffin – viola
Marika Hughes – cello
Daniel Levin – cello
Isabel Castela – cello
Janie Cowan – double bass
Kenny Wessel – electric guitar, banjo
Marco Cappelli – acoustic guitar
Brahim Fribgane – cajon, tarija, oud, percussion
James Hurt – sogo, kidi, igbo bell, percussion
Matt Kilmer – frame drum, djembe, kanjira, percussion
Tim Kieper – dusun’goni, pandiero, percussion
Keita Ogawa –earthtone drum, hadjira, pandeiro, percussion
Tripp Dudley –kanjira, cajon, percussion
Chris Dingman – vibraphone
Alex Marcelo – acoustic piano
Stuart Popejoy – acoustic bass guitar
Music composed and conducted by Adam Rudolph (Migration Music BMI)
Recorded live in concert March and November 2010 at Roulette Intermedium, NYC
Any questions -> support@pro-jazz.com. По всем вопросам пишите -> support@pro-jazz.com
18:07
303
Нет комментариев. Ваш будет первым!