Вы используете незарегистрированную версию компонента "Вкладки"!

Поиск

(Free Jazz, Big Band, Ethnic Jazz) Adam Rudolph Go: Organic Orchestra - Sonic Mandala - 2013, FLAC (tracks+.cue), lossless

(Free Jazz, Big Band, Ethnic Jazz) Adam Rudolph Go: Organic Orchestra - Sonic Mandala - 2013, FLAC (tracks+.cue), lossless
Треклист:
Adam Rudolph Go: Organic Orchestra / Sonic Mandala
Жанр: Free Jazz, Big Band, Ethnic Jazz
Страна-производитель диска: US
Год издания: 2013
Издатель (лейбл): Meta Records
Номер по каталогу: META 017
Страна: US
Аудиокодек: FLAC (*.flac)
Тип рипа: tracks+.cue
Битрейт аудио: lossless
Продолжительность: 60:46
Источник (релизер): свой фирменный диск
Наличие сканов в содержимом раздачи:
Треклист:
1. Part One (Invitation) 8:00
2. Part Two 4:24
3. Part Three 4:07
4. Part Four 4:47
5. Part Five 3:32
6. Part Six 5:35
7. Part Seven (slow) 3:39
8. Part Seven (medium) 3:02
9. Part Seven (fast) 3:16
10. Part Eight 3:49
11. Part Nine 4:38
12. Part Ten 2:14
13. Part Eleven 5:11
14. Part Twelve (Universal Mother) 4:08
 
Лог создания рипа
Exact Audio Copy V1.0 beta 3 from 29. August 2011
EAC extraction logfile from 13. September 2013, 19:20
Adam Rudolph Go: Organic Orchestra / Sonic Mandala
Used drive : PIONEER DVD-RW DVR-115D Adapter: 0 ID: 0
Read mode : Secure
Utilize accurate stream : Yes
Defeat audio cache : Yes
Make use of C2 pointers : No
Read offset correction : 48
Overread into Lead-In and Lead-Out : No
Fill up missing offset samples with silence : Yes
Delete leading and trailing silent blocks : No
Null samples used in CRC calculations : Yes
Used interface : Installed external ASPI interface
Gap handling : Appended to previous track
Used output format : User Defined Encoder
Selected bitrate : 896 kBit/s
Quality : High
Add ID3 tag : No
Command line compressor : C:\Program Files\Exact Audio Copy\FLAC\FLAC.EXE
Additional command line options : -6 -V -T "ARTIST=%artist%" -T "TITLE=%title%" -T "ALBUM=%albumtitle%" -T "DATE=%year%" -T "TRACKNUMBER=%tracknr%" -T "GENRE=%genre%" -T "COMMENT=%comment%" -T "BAND=%albuminterpret%" -T "COMPOSER=%composer%" %haslyrics%--tag-from-file=LYRICS="%lyricsfile%"%haslyrics% -T "DISCNUMBER=%cdnumber%" -T "TOTALDISCS=%totalcds%" -T "TOTALTRACKS=%numtracks%" %hascover%--picture="%coverfile%"%hascover% %source% -o %dest%
TOC of the extracted CD
Track | Start | Length | Start sector | End sector
---------------------------------------------------------
1 | 0:00.00 | 8:00.30 | 0 | 36029
2 | 8:00.30 | 4:26.61 | 36030 | 56040
3 | 12:27.16 | 4:08.71 | 56041 | 74711
4 | 16:36.12 | 4:50.18 | 74712 | 96479
5 | 21:26.30 | 3:35.09 | 96480 | 112613
6 | 25:01.39 | 5:36.48 | 112614 | 137861
7 | 30:38.12 | 3:39.10 | 137862 | 154296
8 | 34:17.22 | 3:02.60 | 154297 | 168006
9 | 37:20.07 | 3:18.06 | 168007 | 182862
10 | 40:38.13 | 3:51.42 | 182863 | 200229
11 | 44:29.55 | 4:40.66 | 200230 | 221295
12 | 49:10.46 | 2:15.59 | 221296 | 231479
13 | 51:26.30 | 5:12.06 | 231480 | 254885
14 | 56:38.36 | 4:08.19 | 254886 | 273504
Track 1
Filename D:\zzz\01 - Part One (Invitation).wav
Pre-gap length 0:00:02.00
Peak level 94.9 %
Extraction speed 4.8 X
Track quality 99.9 %
Test CRC D516620D
Copy CRC D516620D
Track not present in AccurateRip database
Copy OK
Track 2
Filename D:\zzz\02 - Part Two.wav
Peak level 99.5 %
Extraction speed 5.5 X
Track quality 100.0 %
Test CRC 1A1E9138
Copy CRC 1A1E9138
Track not present in AccurateRip database
Copy OK
Track 3
Filename D:\zzz\03 - Part Three.wav
Pre-gap length 0:00:02.00
Peak level 71.9 %
Extraction speed 5.8 X
Track quality 100.0 %
Test CRC 28D6FA57
Copy CRC 28D6FA57
Track not present in AccurateRip database
Copy OK
Track 4
Filename D:\zzz\04 - Part Four.wav
Pre-gap length 0:00:01.37
Peak level 98.2 %
Extraction speed 6.3 X
Track quality 100.0 %
Test CRC 267D7ED0
Copy CRC 267D7ED0
Track not present in AccurateRip database
Copy OK
Track 5
Filename D:\zzz\05 - Part Five.wav
Pre-gap length 0:00:03.00
Peak level 56.2 %
Extraction speed 5.5 X
Track quality 99.9 %
Test CRC 6F4829BE
Copy CRC 6F4829BE
Track not present in AccurateRip database
Copy OK
Track 6
Filename D:\zzz\06 - Part Six.wav
Pre-gap length 0:00:03.00
Peak level 63.4 %
Extraction speed 6.4 X
Track quality 99.9 %
Test CRC F1DDAD44
Copy CRC F1DDAD44
Track not present in AccurateRip database
Copy OK
Track 7
Filename D:\zzz\07 - Part Seven (Slow).wav
Pre-gap length 0:00:01.00
Peak level 81.0 %
Extraction speed 6.1 X
Track quality 99.9 %
Test CRC CB1D3BCA
Copy CRC CB1D3BCA
Track not present in AccurateRip database
Copy OK
Track 8
Filename D:\zzz\08 - Part Seven (Medium).wav
Peak level 92.0 %
Extraction speed 6.9 X
Track quality 100.0 %
Test CRC C1291D35
Copy CRC C1291D35
Track not present in AccurateRip database
Copy OK
Track 9
Filename D:\zzz\09 - Part Seven (Fast).wav
Peak level 90.0 %
Extraction speed 7.3 X
Track quality 100.0 %
Test CRC 2AB8B2B9
Copy CRC 2AB8B2B9
Track not present in AccurateRip database
Copy OK
Track 10
Filename D:\zzz\10 - Part Eight.wav
Pre-gap length 0:00:02.00
Peak level 76.6 %
Extraction speed 7.6 X
Track quality 100.0 %
Test CRC 80FAF9DF
Copy CRC 80FAF9DF
Track not present in AccurateRip database
Copy OK
Track 11
Filename D:\zzz\11 - Part Nine.wav
Pre-gap length 0:00:02.00
Peak level 97.0 %
Extraction speed 7.2 X
Track quality 99.9 %
Test CRC 31942B07
Copy CRC 31942B07
Track not present in AccurateRip database
Copy OK
Track 12
Filename D:\zzz\12 - Part Ten.wav
Pre-gap length 0:00:02.00
Peak level 82.6 %
Extraction speed 6.0 X
Track quality 99.9 %
Test CRC 22E1C36E
Copy CRC 22E1C36E
Track not present in AccurateRip database
Copy OK
Track 13
Filename D:\zzz\13 - Part Eleven.wav
Pre-gap length 0:00:01.00
Peak level 79.7 %
Extraction speed 7.8 X
Track quality 99.9 %
Test CRC B0ACD8EA
Copy CRC B0ACD8EA
Track not present in AccurateRip database
Copy OK
Track 14
Filename D:\zzz\14 - Part Twelve (Universal Mother).wav
Pre-gap length 0:00:01.00
Peak level 74.8 %
Extraction speed 8.4 X
Track quality 100.0 %
Test CRC 437846ED
Copy CRC 437846ED
Track not present in AccurateRip database
Copy OK
None of the tracks are present in the AccurateRip database
No errors occurred
End of status report
==== Log checksum AEC7A4141C57CC1CAA53E56DA16534308BD57BB0B89F570E96F385D6F07F78B9 ====
 
Содержание индексной карты (.CUE)
REM GENRE "Ethnic Jazz"
REM DATE 2013
REM DISCID C70E3E0E
REM COMMENT "ExactAudioCopy v1.0b3"
PERFORMER " Adam Rudolph Go: Organic Orchestra"
TITLE "Sonic Mandala"
FILE "01 - Part One (Invitation).wav" WAVE
TRACK 01 AUDIO
TITLE "Part One (Invitation)"
PERFORMER " Adam Rudolph Go: Organic Orchestra"
INDEX 01 00:00:00
FILE "02 - Part Two.wav" WAVE
TRACK 02 AUDIO
TITLE "Part Two"
PERFORMER " Adam Rudolph Go: Organic Orchestra"
INDEX 01 00:00:00
TRACK 03 AUDIO
TITLE "Part Three"
PERFORMER " Adam Rudolph Go: Organic Orchestra"
INDEX 00 04:24:61
FILE "03 - Part Three.wav" WAVE
INDEX 01 00:00:00
TRACK 04 AUDIO
TITLE "Part Four"
PERFORMER " Adam Rudolph Go: Organic Orchestra"
INDEX 00 04:07:34
FILE "04 - Part Four.wav" WAVE
INDEX 01 00:00:00
TRACK 05 AUDIO
TITLE "Part Five"
PERFORMER " Adam Rudolph Go: Organic Orchestra"
INDEX 00 04:47:18
FILE "05 - Part Five.wav" WAVE
INDEX 01 00:00:00
TRACK 06 AUDIO
TITLE "Part Six"
PERFORMER " Adam Rudolph Go: Organic Orchestra"
INDEX 00 03:32:09
FILE "06 - Part Six.wav" WAVE
INDEX 01 00:00:00
TRACK 07 AUDIO
TITLE "Part Seven (Slow)"
PERFORMER " Adam Rudolph Go: Organic Orchestra"
INDEX 00 05:35:48
FILE "07 - Part Seven (Slow).wav" WAVE
INDEX 01 00:00:00
FILE "08 - Part Seven (Medium).wav" WAVE
TRACK 08 AUDIO
TITLE "Part Seven (Medium)"
PERFORMER " Adam Rudolph Go: Organic Orchestra"
INDEX 01 00:00:00
FILE "09 - Part Seven (Fast).wav" WAVE
TRACK 09 AUDIO
TITLE "Part Seven (Fast)"
PERFORMER " Adam Rudolph Go: Organic Orchestra"
INDEX 01 00:00:00
TRACK 10 AUDIO
TITLE "Part Eight"
PERFORMER " Adam Rudolph Go: Organic Orchestra"
INDEX 00 03:16:06
FILE "10 - Part Eight.wav" WAVE
INDEX 01 00:00:00
TRACK 11 AUDIO
TITLE "Part Nine"
PERFORMER " Adam Rudolph Go: Organic Orchestra"
INDEX 00 03:49:42
FILE "11 - Part Nine.wav" WAVE
INDEX 01 00:00:00
TRACK 12 AUDIO
TITLE "Part Ten"
PERFORMER " Adam Rudolph Go: Organic Orchestra"
INDEX 00 04:38:66
FILE "12 - Part Ten.wav" WAVE
INDEX 01 00:00:00
TRACK 13 AUDIO
TITLE "Part Eleven"
PERFORMER " Adam Rudolph Go: Organic Orchestra"
INDEX 00 02:14:59
FILE "13 - Part Eleven.wav" WAVE
INDEX 01 00:00:00
TRACK 14 AUDIO
TITLE "Part Twelve (Universal Mother)"
PERFORMER " Adam Rudolph Go: Organic Orchestra"
INDEX 00 05:11:06
FILE "14 - Part Twelve (Universal Mother).wav" WAVE
INDEX 01 00:00:00
 
Лог проверки качества
d:\>d:\aucdtect -d/-m0 d:\zzz\*.wav
auCDtect: CD records authenticity detector, version 0.8.2
Copyright (c) 2004 Oleg Berngardt. All rights reserved.
Copyright (c) 2004 Alexander Djourik. All rights reserved.
------------------------------------------------------------
Processing file: [01. Part One (Invitation).wav]
------------------------------------------------------------
This track looks like CDDA with probability 100%
------------------------------------------------------------
Processing file: [02. Part Two.wav]
------------------------------------------------------------
This track looks like CDDA with probability 100%
------------------------------------------------------------
Processing file: [03. Part Three.wav]
------------------------------------------------------------
This track looks like CDDA with probability 100%
------------------------------------------------------------
Processing file: [04. Part Four.wav]
------------------------------------------------------------
This track looks like CDDA with probability 100%
------------------------------------------------------------
Processing file: [05. Part Five.wav]
------------------------------------------------------------
This track looks like CDDA with probability 100%
------------------------------------------------------------
Processing file: [06. Part Six.wav]
------------------------------------------------------------
This track looks like CDDA with probability 94%
------------------------------------------------------------
Processing file: [07. Part Seven (Slow).wav]
------------------------------------------------------------
This track looks like CDDA with probability 100%
------------------------------------------------------------
Processing file: [08. Part Seven (Medium).wav]
------------------------------------------------------------
This track looks like CDDA with probability 99%
------------------------------------------------------------
Processing file: [09. Part Seven (Fast).wav]
------------------------------------------------------------
This track looks like CDDA with probability 100%
------------------------------------------------------------
Processing file: [10. Part Eight.wav]
------------------------------------------------------------
This track looks like CDDA with probability 100%
------------------------------------------------------------
Processing file: [11. Part Nine.wav]
------------------------------------------------------------
This track looks like CDDA with probability 100%
------------------------------------------------------------
Processing file: [12. Part Ten.wav]
------------------------------------------------------------
This track looks like MPEG with probability 97%
------------------------------------------------------------
Processing file: [13. Part Eleven.wav]
------------------------------------------------------------
This track looks like CDDA with probability 100%
------------------------------------------------------------
Processing file: [14. Part Twelve (Universal Mother).wav]
------------------------------------------------------------
This track looks like CDDA with probability 49%
------------------------------------------------------------
Final Conclusion:
------------------------------------------------------------
These tracks looks like CDDA with probability 100%
Доп. информация:
 
Adam Rudolph Notes
“Contemplation of a Mandala returns us from the illusion of individual existence into the way of living in resonance with the wholeness of nature. In music we can call this practice Sonic Mandala. In it we generate ostinatos of circularity that play in a synchronized sound weaving of space and motion. Patterns become like design, thought, dialogue, and forms in nature. These over time create momentum; an invitation to join in the shared experience of the lifted moment.” - Adam Rudolph
 
Состав
GO: ORGANIC ORCHESTRA
Ralph M. Jones - alto and c flute, hulusi, bamboo flutes
Kaoru Watanabe – noh kan, fue, c flute
Ze Luis Oliveira – c and alto flute, bamboo flutes
Michel Gentile – c and alto flute, bamboo flutes
Sylvain Leroux – tambin fulani flute, c flute, sheng, bamboo flutes
Batya Sobel – oboe, ocarina
Sara Schoenbeck – bassoon, sona
Ned Rothenberg – b flat & bass clarinet, shakuhachi
J D Parran – contra alto clarinet, kalimbas, ewart bamboo flute
Avram Fefer - b flat & bass clarinet, bamboo flutes
Ivan Barenboim - b flat clarinet, bamboo flutes
Graham Haynes – cornet, flugelhorn, ewart bamboo horn
Stephen Haynes – trumpet, flugelhorn, alto horn, conch
Peter Zummo – trombone, conch, didgeridoo, zithers
Elektra Kurtis – violin
Rosemarie Hertlein – violin
Gwen Laster – violin
Sarah Bernstein – violin
Skye Steele – violin
Curtis Stewart – violin
Jason Kao Hwang – viola
Stephanie Griffin – viola
Marika Hughes – cello
Janie Cowan – double bass
James Hurt – sogo, kidi, igbo bell, udu, percussion
Matt Kilmer – frame drum, djembe, kanjira, udu, percussion
Brahim Fribgane – cajon, tarija, udu, percussion
Tim Kieper – dusun’goni, pandiero, caxixi, udu, percussion
Keita Ogawa –earthtone drum, frame drum, hadjira, pandeiro, udu, percussion
Tripp Dudley – kanjira, cajon, bayan, frame drum, udu, percussion
Adam Rudolph – bata, slit drum, rebolo, gankogoui, udu, percussion
Alex Marcelo – piano, fender rhodes
Kenny Wessel – electric guitar, banjo
Stuart Popejoy – electric bass
Recorded April 20 & May 5 & 6 2012 at Orange Music Sound Studio, New Jersey
Any questions -> support@pro-jazz.com. По всем вопросам пишите -> support@pro-jazz.com
18:08
290
Нет комментариев. Ваш будет первым!