Поиск

(Free Jazz, Avant-Garde) Joe Fiedler Trio - Plays the Music of Albert Mangelsdorff - 2005, FLAC (tracks+.cue), lossless

(Free Jazz, Avant-Garde) Joe Fiedler Trio - Plays the Music of Albert Mangelsdorff - 2005, FLAC (tracks+.cue), lossless
Треклист:
Joe Fiedler Trio / Plays the Music of Albert Mangelsdorff
Жанр: Free Jazz, Avant-Garde
Страна-производитель диска: Portugal
Год издания: 2005
Издатель (лейбл): Clean Feed
Номер по каталогу: CF049CD
Аудиокодек: FLAC (*.flac)
Тип рипа: tracks+.cue
Битрейт аудио: lossless
Продолжительность: 55:06
Источник (релизер): Max Monteiro
Наличие сканов в содержимом раздачи: да
Треклист:
1. Wheat Song 5:17
2. Rip Off 7:00
3. Now Jazz Ramwong 9:11
4. An Ant Steps on an Elephant’s Toe 5:21
5. Mayday Hymn 7:06
6. Lapwing 5:29
7. Zores Mores 5:20
8. Wart G’Schwind 4:48
9. Do Your Own Thing 5:36
All compositions by Albert Mangelsdorff.
All arrangements by Joe Fiedler.
Recorded on November 10 and 11, 2003 at Charleston Road Studio, Hampton, New Jersey.
Joe Fiedler – Trombone
John Hebert – Bass
Mark Ferber – Drums
 
Лог создания рипа
Exact Audio Copy V1.0 beta 3 from 29. August 2011
EAC extraction logfile from 19. July 2013, 21:22
Joe Fiedler Trio / Plays the Music of Albert Mangelsdorff
Used drive : SlimtypeeNAU508 5 Adapter: 1 ID: 0
Read mode : Secure
Utilize accurate stream : Yes
Defeat audio cache : Yes
Make use of C2 pointers : No
Read offset correction : 6
Overread into Lead-In and Lead-Out : No
Fill up missing offset samples with silence : Yes
Delete leading and trailing silent blocks : No
Null samples used in CRC calculations : Yes
Used interface : Native Win32 interface for Win NT & 2000
Gap handling : Appended to previous track
Used output format : User Defined Encoder
Selected bitrate : 768 kBit/s
Quality : High
Add ID3 tag : No
Command line compressor : C:\Program Files (x86)\Exact Audio Copy\Flac\flac.exe
Additional command line options : -8 -V -T "ARTIST=%artist%" -T "TITLE=%title%" -T "ALBUM=%albumtitle%" -T "DATE=%year%" -T "TRACKNUMBER=%tracknr%" -T "GENRE=%genre%" -T "PERFORMER=%albuminterpret%" -T "COMPOSER=%composer%" %haslyrics%--tag-from-file=LYRICS="%lyricsfile%"%haslyrics% -T "ALBUMARTIST=%albumartist%" -T "DISCNUMBER=%cdnumber%" -T "TOTALDISCS=%totalcds%" -T "TOTALTRACKS=%numtracks%" -T "COMMENT=%comment%" %source% -o %dest%
TOC of the extracted CD
Track | Start | Length | Start sector | End sector
---------------------------------------------------------
1 | 0:00.00 | 5:16.39 | 0 | 23738
2 | 5:16.39 | 6:59.72 | 23739 | 55235
3 | 12:16.36 | 9:10.63 | 55236 | 96548
4 | 21:27.24 | 5:20.43 | 96549 | 120591
5 | 26:47.67 | 7:05.41 | 120592 | 152507
6 | 33:53.33 | 5:28.49 | 152508 | 177156
7 | 39:22.07 | 5:19.57 | 177157 | 201138
8 | 44:41.64 | 4:47.54 | 201139 | 222717
9 | 49:29.43 | 5:36.17 | 222718 | 247934
Track 1
Filename C:\EAC rips\01 - Wheat Song.wav
Pre-gap length 0:00:02.00
Peak level 99.9 %
Extraction speed 2.1 X
Track quality 100.0 %
Test CRC CE14CD15
Copy CRC CE14CD15
Track not present in AccurateRip database
Copy OK
Track 2
Filename C:\EAC rips\02 - Rip Off.wav
Pre-gap length 0:00:03.00
Peak level 79.3 %
Extraction speed 2.2 X
Track quality 99.9 %
Test CRC E5B46C6D
Copy CRC E5B46C6D
Track not present in AccurateRip database
Copy OK
Track 3
Filename C:\EAC rips\03 - Now Jazz Ramwong.wav
Peak level 99.9 %
Extraction speed 2.8 X
Track quality 100.0 %
Test CRC 48034C66
Copy CRC 48034C66
Track not present in AccurateRip database
Copy OK
Track 4
Filename C:\EAC rips\04 - An Ant Steps on an Elephant's Toe.wav
Pre-gap length 0:00:02.00
Peak level 99.9 %
Extraction speed 3.2 X
Track quality 100.0 %
Test CRC E72BD66D
Copy CRC E72BD66D
Track not present in AccurateRip database
Copy OK
Track 5
Filename C:\EAC rips\05 - Mayday Hymn.wav
Pre-gap length 0:00:03.00
Peak level 99.9 %
Extraction speed 3.6 X
Track quality 100.0 %
Test CRC A5EE9F04
Copy CRC A5EE9F04
Track not present in AccurateRip database
Copy OK
Track 6
Filename C:\EAC rips\06 - Lapwing.wav
Pre-gap length 0:00:02.00
Peak level 98.8 %
Extraction speed 3.2 X
Track quality 99.9 %
Test CRC 6A2B2E77
Copy CRC 6A2B2E77
Track not present in AccurateRip database
Copy OK
Track 7
Filename C:\EAC rips\07 - Zores Mores.wav
Pre-gap length 0:00:02.00
Peak level 98.8 %
Extraction speed 3.9 X
Track quality 100.0 %
Test CRC B59C6278
Copy CRC B59C6278
Track not present in AccurateRip database
Copy OK
Track 8
Filename C:\EAC rips\08 - Wart G'Schwind.wav
Pre-gap length 0:00:02.00
Peak level 99.9 %
Extraction speed 4.0 X
Track quality 100.0 %
Test CRC 6B79EB6F
Copy CRC 6B79EB6F
Track not present in AccurateRip database
Copy OK
Track 9
Filename C:\EAC rips\09 - Do Your Own Thing.wav
Pre-gap length 0:00:02.00
Peak level 63.0 %
Extraction speed 4.2 X
Track quality 100.0 %
Test CRC 72CCEC81
Copy CRC 72CCEC81
Track not present in AccurateRip database
Copy OK
None of the tracks are present in the AccurateRip database
No errors occurred
End of status report
---- CUETools DB Plugin V2.1.4
[CTDB TOCID: 1N5Bmx.8yMhSo_90hfWmaKw7K4k-] disk not present in database
Submit result: 1N5Bmx.8yMhSo_90hfWmaKw7K4k- has been uploaded
==== Log checksum 984124A80E6F6A5BAD392FCE8215CBE4E1C00E4A11DB237B9FCF8798DCF25B87 ====
 
Содержание индексной карты (.CUE)
REM GENRE Jazz
REM DATE 2005
REM DISCID 830CE909
REM COMMENT "ExactAudioCopy v1.0b3"
PERFORMER "Joe Fiedler Trio"
TITLE "Plays the Music of Albert Mangelsdorff"
FILE "01 - Wheat Song.wav" WAVE
TRACK 01 AUDIO
TITLE "Wheat Song"
PERFORMER "Joe Fiedler Trio"
INDEX 01 00:00:00
TRACK 02 AUDIO
TITLE "Rip Off"
PERFORMER "Joe Fiedler Trio"
INDEX 00 05:13:39
FILE "02 - Rip Off.wav" WAVE
INDEX 01 00:00:00
FILE "03 - Now Jazz Ramwong.wav" WAVE
TRACK 03 AUDIO
TITLE "Now Jazz Ramwong"
PERFORMER "Joe Fiedler Trio"
INDEX 01 00:00:00
TRACK 04 AUDIO
TITLE "An Ant Steps on an Elephant's Toe"
PERFORMER "Joe Fiedler Trio"
INDEX 00 09:08:63
FILE "04 - An Ant Steps on an Elephant's Toe.wav" WAVE
INDEX 01 00:00:00
TRACK 05 AUDIO
TITLE "Mayday Hymn"
PERFORMER "Joe Fiedler Trio"
INDEX 00 05:17:43
FILE "05 - Mayday Hymn.wav" WAVE
INDEX 01 00:00:00
TRACK 06 AUDIO
TITLE "Lapwing"
PERFORMER "Joe Fiedler Trio"
INDEX 00 07:03:41
FILE "06 - Lapwing.wav" WAVE
INDEX 01 00:00:00
TRACK 07 AUDIO
TITLE "Zores Mores"
PERFORMER "Joe Fiedler Trio"
INDEX 00 05:26:49
FILE "07 - Zores Mores.wav" WAVE
INDEX 01 00:00:00
TRACK 08 AUDIO
TITLE "Wart G'Schwind"
PERFORMER "Joe Fiedler Trio"
INDEX 00 05:17:57
FILE "08 - Wart G'Schwind.wav" WAVE
INDEX 01 00:00:00
TRACK 09 AUDIO
TITLE "Do Your Own Thing"
PERFORMER "Joe Fiedler Trio"
INDEX 00 04:45:54
FILE "09 - Do Your Own Thing.wav" WAVE
INDEX 01 00:00:00
По всем вопросам пишите личное сообщение пользователю M0p94ok.
17:00
353
Нет комментариев. Ваш будет первым!