Вы используете незарегистрированную версию компонента "Вкладки"!

Поиск

(Avant-Garde, Contemporary Jazz, Enja Records) Aki Takase - Close Up of Japan - 1993, FLAC (tracks+.cue), lossless

(Avant-Garde, Contemporary Jazz, Enja Records) Aki Takase - Close Up of Japan - 1993, FLAC (tracks+.cue), lossless
Треклист:
Aki Takase / Close Up of Japan
Жанр: Avant-Garde, Contemporary Jazz, Enja Records
Страна-производитель диска: Germany
Год издания: 1993
Издатель (лейбл): Enja Records
Номер по каталогу: enja CD 7075-2
Аудиокодек: FLAC (*.flac)
Тип рипа: tracks+.cue
Битрейт аудио: lossless
Продолжительность: 1:00:07
Источник (релизер): Max Monteiro
Наличие сканов в содержимом раздачи: нет
Треклист:
1. Point (Alexander von Schlippenbach) 7:42
2. Presto V. H. (Aki Takase) 3:48
3. Song for Che (Charlie Haden) 8:06
4. Wagakokoro No Renaissance (Aki Takase) 4:01
5. Scaramouche (D. Milhad) 8:54
6. Milestones (Miles Davis) 8:08
7. Close Up of Japan (Aki Takase) 10:16
8. Winter in Buenos Aires (Astor Piazzolla) 9:11
All arrangements by Aki Takase.
Recorded at Meistersingerhalle, Nürnberg on June 1st & 2nd, 1992.
Aki Takase – Piano, Percussion
Toki String Quartet:
Michiko Iiyoshi – 1st Violin
Kaori Takeuchi – 2nd Violin
Toshie Sugibayashi – Viola
Tatsuki Watanabe – Cello
Nobuyoshi Ino – Bass
 
Лог создания рипа
Exact Audio Copy V1.0 beta 3 from 29. August 2011
EAC extraction logfile from 10. September 2013, 16:25
Aki Takase / Close Up of Japan
Used drive : SlimtypeeNAU508 5 Adapter: 1 ID: 0
Read mode : Secure
Utilize accurate stream : Yes
Defeat audio cache : Yes
Make use of C2 pointers : No
Read offset correction : 6
Overread into Lead-In and Lead-Out : No
Fill up missing offset samples with silence : Yes
Delete leading and trailing silent blocks : No
Null samples used in CRC calculations : Yes
Used interface : Native Win32 interface for Win NT & 2000
Gap handling : Appended to previous track
Used output format : User Defined Encoder
Selected bitrate : 768 kBit/s
Quality : High
Add ID3 tag : No
Command line compressor : C:\Program Files (x86)\Exact Audio Copy\Flac\flac.exe
Additional command line options : -8 -V -T "ARTIST=%artist%" -T "TITLE=%title%" -T "ALBUM=%albumtitle%" -T "DATE=%year%" -T "TRACKNUMBER=%tracknr%" -T "GENRE=%genre%" -T "PERFORMER=%albuminterpret%" -T "COMPOSER=%composer%" %haslyrics%--tag-from-file=LYRICS="%lyricsfile%"%haslyrics% -T "ALBUMARTIST=%albumartist%" -T "DISCNUMBER=%cdnumber%" -T "TOTALDISCS=%totalcds%" -T "TOTALTRACKS=%numtracks%" -T "COMMENT=%comment%" %source% -o %dest%
TOC of the extracted CD
Track | Start | Length | Start sector | End sector
---------------------------------------------------------
1 | 0:00.00 | 7:41.50 | 0 | 34624
2 | 7:41.50 | 3:48.02 | 34625 | 51726
3 | 11:29.52 | 8:06.35 | 51727 | 88211
4 | 19:36.12 | 4:00.40 | 88212 | 106251
5 | 23:36.52 | 8:54.03 | 106252 | 146304
6 | 32:30.55 | 8:08.12 | 146305 | 182916
7 | 40:38.67 | 10:16.13 | 182917 | 229129
8 | 50:55.05 | 9:11.35 | 229130 | 270489
Track 1
Filename C:\EAC rips\01 - Point.wav
Pre-gap length 0:00:02.00
Peak level 100.0 %
Extraction speed 2.3 X
Track quality 100.0 %
Test CRC D2CDB9B0
Copy CRC D2CDB9B0
Accurately ripped (confidence 2) [9E52A921] (AR v1)
Copy OK
Track 2
Filename C:\EAC rips\02 - Presto V. H..wav
Pre-gap length 0:00:03.53
Peak level 68.9 %
Extraction speed 2.5 X
Track quality 100.0 %
Test CRC 04963C50
Copy CRC 04963C50
Accurately ripped (confidence 2) [990960CC] (AR v1)
Copy OK
Track 3
Filename C:\EAC rips\03 - Song for Che.wav
Pre-gap length 0:00:02.52
Peak level 58.4 %
Extraction speed 3.0 X
Track quality 100.0 %
Test CRC A5CCCD57
Copy CRC A5CCCD57
Accurately ripped (confidence 2) [D3889BDB] (AR v1)
Copy OK
Track 4
Filename C:\EAC rips\04 - Wagakokoro No Renaissance.wav
Peak level 80.6 %
Extraction speed 3.1 X
Track quality 100.0 %
Test CRC A90A3CE5
Copy CRC A90A3CE5
Accurately ripped (confidence 2) [70A860B8] (AR v1)
Copy OK
Track 5
Filename C:\EAC rips\05 - Scaramouche.wav
Pre-gap length 0:00:02.62
Peak level 84.8 %
Extraction speed 3.6 X
Track quality 100.0 %
Test CRC 68290F10
Copy CRC 68290F10
Accurately ripped (confidence 2) [927CF105] (AR v1)
Copy OK
Track 6
Filename C:\EAC rips\06 - Milestones.wav
Pre-gap length 0:00:03.13
Peak level 91.3 %
Extraction speed 3.9 X
Track quality 100.0 %
Test CRC C579E720
Copy CRC C579E720
Accurately ripped (confidence 2) [91C9FD09] (AR v1)
Copy OK
Track 7
Filename C:\EAC rips\07 - Close Up of Japan.wav
Pre-gap length 0:00:02.17
Peak level 64.2 %
Extraction speed 3.9 X
Track quality 99.9 %
Test CRC EC660C92
Copy CRC EC660C92
Accurately ripped (confidence 2) [0E140F90] (AR v1)
Copy OK
Track 8
Filename C:\EAC rips\08 - Winter in Buenos Aires.wav
Pre-gap length 0:00:03.00
Peak level 65.9 %
Extraction speed 4.1 X
Track quality 99.9 %
Test CRC 2FA00E21
Copy CRC 2FA00E21
Accurately ripped (confidence 2) [1B5A5F20] (AR v1)
Copy OK
All tracks accurately ripped
No errors occurred
End of status report
---- CUETools DB Plugin V2.1.4
[CTDB TOCID: YkfOP1znmkWE57L7XYl2hLQjkSs-] found
Submit result: YkfOP1znmkWE57L7XYl2hLQjkSs- has been confirmed
Track | CTDB Status
1 | (2/2) Accurately ripped
2 | (2/2) Accurately ripped
3 | (2/2) Accurately ripped
4 | (2/2) Accurately ripped
5 | (2/2) Accurately ripped
6 | (2/2) Accurately ripped
7 | (2/2) Accurately ripped
8 | (2/2) Accurately ripped
==== Log checksum 555E9921E1B3C3609F314157B2E79915CC9F219982DDC8B02D23CA3D14A77BC7 ====
 
Содержание индексной карты (.CUE)
REM GENRE Jazz
REM DATE 1993
REM DISCID 680E1608
REM COMMENT "ExactAudioCopy v1.0b3"
PERFORMER "Aki Takase"
TITLE "Close Up of Japan"
FILE "01 - Point.wav" WAVE
TRACK 01 AUDIO
TITLE "Point"
PERFORMER "Aki Takase"
INDEX 01 00:00:00
TRACK 02 AUDIO
TITLE "Presto V. H."
PERFORMER "Aki Takase"
INDEX 00 07:37:72
FILE "02 - Presto V. H..wav" WAVE
INDEX 01 00:00:00
TRACK 03 AUDIO
TITLE "Song for Che"
PERFORMER "Aki Takase"
INDEX 00 03:45:25
FILE "03 - Song for Che.wav" WAVE
INDEX 01 00:00:00
FILE "04 - Wagakokoro No Renaissance.wav" WAVE
TRACK 04 AUDIO
TITLE "Wagakokoro No Renaissance"
PERFORMER "Aki Takase"
INDEX 01 00:00:00
TRACK 05 AUDIO
TITLE "Scaramouche"
PERFORMER "Aki Takase"
INDEX 00 03:57:53
FILE "05 - Scaramouche.wav" WAVE
INDEX 01 00:00:00
TRACK 06 AUDIO
TITLE "Milestones"
PERFORMER "Aki Takase"
INDEX 00 08:50:65
FILE "06 - Milestones.wav" WAVE
INDEX 01 00:00:00
TRACK 07 AUDIO
TITLE "Close Up of Japan"
PERFORMER "Aki Takase"
INDEX 00 08:05:70
FILE "07 - Close Up of Japan.wav" WAVE
INDEX 01 00:00:00
TRACK 08 AUDIO
TITLE "Winter in Buenos Aires"
PERFORMER "Aki Takase"
INDEX 00 10:13:13
FILE "08 - Winter in Buenos Aires.wav" WAVE
INDEX 01 00:00:00
По всем вопросам пишите личное сообщение пользователю M0p94ok.
17:59
172
Нет комментариев. Ваш будет первым!