Вы используете незарегистрированную версию компонента "Вкладки"!

Поиск

(Free Improvisation, Bee Jazz Records) Jean-Philippe Muvien, Daniel Humair, Francois Jeanneau, Jean-Philippe Viret - Flench Wok - 2005, FLAC (tracks+.cue), lossless

(Free Improvisation, Bee Jazz Records) Jean-Philippe Muvien, Daniel Humair, Francois Jeanneau, Jean-Philippe Viret - Flench Wok - 2005, FLAC (tracks+.cue), lossless
Треклист:
Jean-Philippe Muvien, Daniel Humair, François Jeanneau, Jean-Philippe Viret / Flench Wok
Жанр: Free Improvisation, Bee Jazz Records
Страна-производитель диска: France
Год издания: 2005
Издатель (лейбл): Bee Jazz Records
Номер по каталогу: BEE 011
Аудиокодек: FLAC (*.flac)
Тип рипа: tracks+.cue
Битрейт аудио: lossless
Продолжительность: 51:20
Источник (релизер): Max Monteiro
Наличие сканов в содержимом раздачи: нет
Треклист:
01. Flench Wok (Jean-Philippe Muvien, Daniel Humair) 6:25
02. Kotor (François Jeanneau) 5:21
03. Lou and the pote âgé (Daniel Humair, Jean-Philippe Muvien) 4:51
04. Vive les jongleurs (Jean-Philippe Muvien) 6:01
05. Arghh arghh !!! (Jean-Philippe Muvien) 2:52
06. L. (François Jeanneau) 7:02
07. Palindrome (Jean-Philippe Muvien, MYB) 8:17
08. Mon petit lapin (Jean-Philippe Viret) 4:52
09. Toi moi, lui (Jean-Philippe Muvien, Daniel Humair, François Jeanneau) 2:43
10. Westminster (Daniel Humair, Jean-Philippe Muvien, Jean-Philippe Viret) 2:56
Recorded at studio La Buissonne, Pernes-les-Fontaines (France) in April 2004.
Jean-Philippe Muvien – Guitar
Daniel Humair – Drums
François Jeanneau – Soprano Sax
Jean-Philippe Viret – Double Bass
 
Лог создания рипа
Exact Audio Copy V1.0 beta 3 from 29. August 2011
EAC extraction logfile from 10. September 2013, 13:12
Jean-Philippe Muvien, Daniel Humair, François Jeanneau, Jean-Philippe Viret / Flench Wok
Used drive : SlimtypeeNAU508 5 Adapter: 1 ID: 0
Read mode : Secure
Utilize accurate stream : Yes
Defeat audio cache : Yes
Make use of C2 pointers : No
Read offset correction : 6
Overread into Lead-In and Lead-Out : No
Fill up missing offset samples with silence : Yes
Delete leading and trailing silent blocks : No
Null samples used in CRC calculations : Yes
Used interface : Native Win32 interface for Win NT & 2000
Gap handling : Appended to previous track
Used output format : User Defined Encoder
Selected bitrate : 768 kBit/s
Quality : High
Add ID3 tag : No
Command line compressor : C:\Program Files (x86)\Exact Audio Copy\Flac\flac.exe
Additional command line options : -8 -V -T "ARTIST=%artist%" -T "TITLE=%title%" -T "ALBUM=%albumtitle%" -T "DATE=%year%" -T "TRACKNUMBER=%tracknr%" -T "GENRE=%genre%" -T "PERFORMER=%albuminterpret%" -T "COMPOSER=%composer%" %haslyrics%--tag-from-file=LYRICS="%lyricsfile%"%haslyrics% -T "ALBUMARTIST=%albumartist%" -T "DISCNUMBER=%cdnumber%" -T "TOTALDISCS=%totalcds%" -T "TOTALTRACKS=%numtracks%" -T "COMMENT=%comment%" %source% -o %dest%
TOC of the extracted CD
Track | Start | Length | Start sector | End sector
---------------------------------------------------------
1 | 0:00.00 | 6:24.46 | 0 | 28845
2 | 6:24.46 | 5:20.71 | 28846 | 52916
3 | 11:45.42 | 4:51.15 | 52917 | 74756
4 | 16:36.57 | 6:00.71 | 74757 | 101827
5 | 22:37.53 | 2:52.21 | 101828 | 114748
6 | 25:29.74 | 7:02.26 | 114749 | 146424
7 | 32:32.25 | 8:17.08 | 146425 | 183707
8 | 40:49.33 | 4:52.37 | 183708 | 205644
9 | 45:41.70 | 2:42.71 | 205645 | 217865
10 | 48:24.66 | 2:55.41 | 217866 | 231031
Track 1
Filename C:\EAC rips\01 - Flench Wok.wav
Pre-gap length 0:00:02.00
Peak level 99.1 %
Extraction speed 2.3 X
Track quality 100.0 %
Test CRC CA12388E
Copy CRC CA12388E
Track not present in AccurateRip database
Copy OK
Track 2
Filename C:\EAC rips\02 - Kotor.wav
Pre-gap length 0:00:03.08
Peak level 98.5 %
Extraction speed 2.6 X
Track quality 100.0 %
Test CRC 992A6722
Copy CRC 992A6722
Track not present in AccurateRip database
Copy OK
Track 3
Filename C:\EAC rips\03 - Lou and the pote âgé.wav
Pre-gap length 0:00:03.45
Peak level 98.8 %
Extraction speed 2.8 X
Track quality 100.0 %
Test CRC E330733B
Copy CRC E330733B
Track not present in AccurateRip database
Copy OK
Track 4
Filename C:\EAC rips\04 - Vive les jongleurs.wav
Pre-gap length 0:00:03.45
Peak level 99.1 %
Extraction speed 3.1 X
Track quality 100.0 %
Test CRC 2A35726D
Copy CRC 2A35726D
Track not present in AccurateRip database
Copy OK
Track 5
Filename C:\EAC rips\05 - Arghh arghh !!!.wav
Pre-gap length 0:00:04.07
Peak level 97.8 %
Extraction speed 2.3 X
Track quality 99.9 %
Test CRC 7A0B9BC6
Copy CRC 7A0B9BC6
Track not present in AccurateRip database
Copy OK
Track 6
Filename C:\EAC rips\06 - L..wav
Pre-gap length 0:00:03.45
Peak level 99.2 %
Extraction speed 3.5 X
Track quality 100.0 %
Test CRC 08DA99E4
Copy CRC 08DA99E4
Track not present in AccurateRip database
Copy OK
Track 7
Filename C:\EAC rips\07 - Palindrome.wav
Pre-gap length 0:00:03.45
Peak level 98.3 %
Extraction speed 3.8 X
Track quality 100.0 %
Test CRC 9E6A1D87
Copy CRC 9E6A1D87
Track not present in AccurateRip database
Copy OK
Track 8
Filename C:\EAC rips\08 - Mon petit lapin.wav
Pre-gap length 0:00:03.45
Peak level 97.6 %
Extraction speed 3.3 X
Track quality 99.9 %
Test CRC 3DD45708
Copy CRC 3DD45708
Track not present in AccurateRip database
Copy OK
Track 9
Filename C:\EAC rips\09 - Toi moi, lui.wav
Pre-gap length 0:00:03.45
Peak level 98.6 %
Extraction speed 3.6 X
Track quality 100.0 %
Test CRC B5DADB4B
Copy CRC B5DADB4B
Track not present in AccurateRip database
Copy OK
Track 10
Filename C:\EAC rips\10 - Westminster.wav
Pre-gap length 0:00:03.45
Peak level 99.5 %
Extraction speed 3.8 X
Track quality 100.0 %
Test CRC F7B388E5
Copy CRC F7B388E5
Track not present in AccurateRip database
Copy OK
None of the tracks are present in the AccurateRip database
No errors occurred
End of status report
---- CUETools DB Plugin V2.1.4
[CTDB TOCID: cmahXnA7aH9AOeUHE6o1U2.bNB8-] disk not present in database
Submit result: cmahXnA7aH9AOeUHE6o1U2.bNB8- has been uploaded
==== Log checksum 33CB5967E9AFB7D94C1C75FB2C604074D3A9A19999064D227FBDE8F2390C7DFF ====
 
Содержание индексной карты (.CUE)
REM GENRE Jazz
REM DATE 2005
REM DISCID 970C080A
REM COMMENT "ExactAudioCopy v1.0b3"
PERFORMER "Jean-Philippe Muvien, Daniel Humair, François Jeanneau, Jean-Philippe Viret"
TITLE "Flench Wok"
FILE "01 - Flench Wok.wav" WAVE
TRACK 01 AUDIO
TITLE "Flench Wok"
PERFORMER "Jean-Philippe Muvien, Daniel Humair, François Jeanneau, Jean-Philippe Viret"
INDEX 01 00:00:00
TRACK 02 AUDIO
TITLE "Kotor"
PERFORMER "Jean-Philippe Muvien, Daniel Humair, François Jeanneau, Jean-Philippe Viret"
INDEX 00 06:21:38
FILE "02 - Kotor.wav" WAVE
INDEX 01 00:00:00
TRACK 03 AUDIO
TITLE "Lou and the pote âgé"
PERFORMER "Jean-Philippe Muvien, Daniel Humair, François Jeanneau, Jean-Philippe Viret"
INDEX 00 05:17:26
FILE "03 - Lou and the pote âgé.wav" WAVE
INDEX 01 00:00:00
TRACK 04 AUDIO
TITLE "Vive les jongleurs"
PERFORMER "Jean-Philippe Muvien, Daniel Humair, François Jeanneau, Jean-Philippe Viret"
INDEX 00 04:47:45
FILE "04 - Vive les jongleurs.wav" WAVE
INDEX 01 00:00:00
TRACK 05 AUDIO
TITLE "Arghh arghh !!!"
PERFORMER "Jean-Philippe Muvien, Daniel Humair, François Jeanneau, Jean-Philippe Viret"
INDEX 00 05:56:64
FILE "05 - Arghh arghh !!!.wav" WAVE
INDEX 01 00:00:00
TRACK 06 AUDIO
TITLE "L."
PERFORMER "Jean-Philippe Muvien, Daniel Humair, François Jeanneau, Jean-Philippe Viret"
INDEX 00 02:48:51
FILE "06 - L..wav" WAVE
INDEX 01 00:00:00
TRACK 07 AUDIO
TITLE "Palindrome"
PERFORMER "Jean-Philippe Muvien, Daniel Humair, François Jeanneau, Jean-Philippe Viret"
INDEX 00 06:58:56
FILE "07 - Palindrome.wav" WAVE
INDEX 01 00:00:00
TRACK 08 AUDIO
TITLE "Mon petit lapin"
PERFORMER "Jean-Philippe Muvien, Daniel Humair, François Jeanneau, Jean-Philippe Viret"
INDEX 00 08:13:38
FILE "08 - Mon petit lapin.wav" WAVE
INDEX 01 00:00:00
TRACK 09 AUDIO
TITLE "Toi moi, lui"
PERFORMER "Jean-Philippe Muvien, Daniel Humair, François Jeanneau, Jean-Philippe Viret"
INDEX 00 04:48:67
FILE "09 - Toi moi, lui.wav" WAVE
INDEX 01 00:00:00
TRACK 10 AUDIO
TITLE "Westminster"
PERFORMER "Jean-Philippe Muvien, Daniel Humair, François Jeanneau, Jean-Philippe Viret"
INDEX 00 02:39:26
FILE "10 - Westminster.wav" WAVE
INDEX 01 00:00:00
По всем вопросам пишите личное сообщение пользователю M0p94ok.
17:59
175
Нет комментариев. Ваш будет первым!