Вы используете незарегистрированную версию компонента "Вкладки"!

Поиск

(Avant-Garde Jazz, Free Jazz) Gregorio, Roebke, Labycz Trio (Guillermo Gregorio, Jason Roebke, Brian Labycz) - Without Titles - 2012, FLAC (tracks+.cue), lossless

(Avant-Garde Jazz, Free Jazz) Gregorio, Roebke, Labycz Trio (Guillermo Gregorio, Jason Roebke, Brian Labycz) - Without Titles - 2012, FLAC (tracks+.cue), lossless
Треклист:
Gregorio, Roebke, Labycz Trio / Without Titles
Жанр: Avant-Garde Jazz, Free Jazz
Страна-производитель диска: USA
Год издания: 2012
Издатель (лейбл): Peira Records
Номер по каталогу: PM16
Аудиокодек: FLAC (*.flac)
Тип рипа: tracks+.cue
Битрейт аудио: lossless
Продолжительность: 45:26
Источник (релизер): Pro-CDr
Наличие сканов в содержимом раздачи: да
Треклист:
01. Untitled (4:27)
02. Untitled (3:10)
03. Untitled (6:29)
04. Untitled (7:53)
05. Untitled (2:42)
06. Untitled (4:45)
07. Untitled (3:30)
08. Untitled (3:17)
09. Untitled (3:19)
10. Untitled (5:28)
http://www.peira.net/pm16.html
 
Лог создания рипа
Exact Audio Copy V1.0 beta 2 from 29. April 2011
EAC extraction logfile from 3. September 2013, 21:51
Gregorio, Roebke, Labycz Trio / Without Titles
Used drive : Optiarc DVD RW AD-5280S Adapter: 1 ID: 1
Read mode : Secure
Utilize accurate stream : Yes
Defeat audio cache : Yes
Make use of C2 pointers : No
Read offset correction : 48
Overread into Lead-In and Lead-Out : No
Fill up missing offset samples with silence : Yes
Delete leading and trailing silent blocks : No
Null samples used in CRC calculations : Yes
Used interface : Installed external ASPI interface
Gap handling : Appended to previous track
Used output format : User Defined Encoder
Selected bitrate : 128 kBit/s
Quality : High
Add ID3 tag : No
Command line compressor : C:\Program Files\FLAC\flac.exe
Additional command line options : -V -8 -T "Genre=%genre%" -T "Artist=%artist%" -T "Title=%title%" -T "Album=%albumtitle%" -T "Date=%year%" -T "Tracknumber=%tracknr%" -T "Comment=%comment%" %source%
TOC of the extracted CD
Track | Start | Length | Start sector | End sector
---------------------------------------------------------
1 | 0:00.00 | 4:29.46 | 0 | 20220
2 | 4:29.46 | 3:12.23 | 20221 | 34643
3 | 7:41.69 | 6:31.69 | 34644 | 64037
4 | 14:13.63 | 7:55.04 | 64038 | 99666
5 | 22:08.67 | 2:44.08 | 99667 | 111974
6 | 24:53.00 | 4:47.14 | 111975 | 133513
7 | 29:40.14 | 3:32.48 | 133514 | 149461
8 | 33:12.62 | 3:19.39 | 149462 | 164425
9 | 36:32.26 | 3:21.69 | 164426 | 179569
10 | 39:54.20 | 5:28.28 | 179570 | 204197
Track 1
Filename C:\Gregorio, Roebke, Labycz Trio (2012) - Without Titles\01 - Untitled.wav
Pre-gap length 0:00:02.00
Peak level 100.0 %
Extraction speed 2.7 X
Track quality 100.0 %
Test CRC 7405C82C
Copy CRC 7405C82C
Accurately ripped (confidence 1) [5F0CE53B] (AR v2)
Copy OK
Track 2
Filename C:\Gregorio, Roebke, Labycz Trio (2012) - Without Titles\02 - Untitled.wav
Peak level 100.0 %
Extraction speed 2.8 X
Track quality 100.0 %
Test CRC E4B32AD6
Copy CRC E4B32AD6
Accurately ripped (confidence 1) [7C40A846] (AR v2)
Copy OK
Track 3
Filename C:\Gregorio, Roebke, Labycz Trio (2012) - Without Titles\03 - Untitled.wav
Peak level 98.8 %
Extraction speed 3.3 X
Track quality 100.0 %
Test CRC 8E6DA334
Copy CRC 8E6DA334
Accurately ripped (confidence 1) [A975FBBC] (AR v2)
Copy OK
Track 4
Filename C:\Gregorio, Roebke, Labycz Trio (2012) - Without Titles\04 - Untitled.wav
Peak level 98.0 %
Extraction speed 3.5 X
Track quality 99.9 %
Test CRC B8C785CE
Copy CRC B8C785CE
Accurately ripped (confidence 1) [CA336F12] (AR v2)
Copy OK
Track 5
Filename C:\Gregorio, Roebke, Labycz Trio (2012) - Without Titles\05 - Untitled.wav
Peak level 93.4 %
Extraction speed 3.5 X
Track quality 100.0 %
Test CRC 0D59204B
Copy CRC 0D59204B
Accurately ripped (confidence 1) [37A7F779] (AR v2)
Copy OK
Track 6
Filename C:\Gregorio, Roebke, Labycz Trio (2012) - Without Titles\06 - Untitled.wav
Peak level 100.0 %
Extraction speed 3.6 X
Track quality 99.9 %
Test CRC 799EF62F
Copy CRC 799EF62F
Accurately ripped (confidence 1) [579A903C] (AR v2)
Copy OK
Track 7
Filename C:\Gregorio, Roebke, Labycz Trio (2012) - Without Titles\07 - Untitled.wav
Peak level 98.3 %
Extraction speed 4.0 X
Track quality 100.0 %
Test CRC EA15232B
Copy CRC EA15232B
Accurately ripped (confidence 1) [09D60866] (AR v2)
Copy OK
Track 8
Filename C:\Gregorio, Roebke, Labycz Trio (2012) - Without Titles\08 - Untitled.wav
Peak level 98.0 %
Extraction speed 3.6 X
Track quality 99.9 %
Test CRC D76B98C4
Copy CRC D76B98C4
Accurately ripped (confidence 1) [4B4867BA] (AR v2)
Copy OK
Track 9
Filename C:\Gregorio, Roebke, Labycz Trio (2012) - Without Titles\09 - Untitled.wav
Peak level 100.0 %
Extraction speed 4.2 X
Track quality 100.0 %
Test CRC B27A40E8
Copy CRC B27A40E8
Accurately ripped (confidence 1) [E145229F] (AR v2)
Copy OK
Track 10
Filename C:\Gregorio, Roebke, Labycz Trio (2012) - Without Titles\10 - Untitled.wav
Peak level 99.6 %
Extraction speed 4.3 X
Track quality 99.9 %
Test CRC 294D7E0B
Copy CRC 294D7E0B
Accurately ripped (confidence 1) [267A74C6] (AR v2)
Copy OK
All tracks accurately ripped
No errors occurred
End of status report
==== Log checksum 0F554E5242D07B1043E0C0673E4A7507628156175F5FF3F70210EDDCD5D556C1 ====
 
Содержание индексной карты (.CUE)
REM GENRE Jazz
REM DATE 2012
REM DISCID 920AA20A
REM COMMENT "ExactAudioCopy v1.0b2"
PERFORMER "Gregorio, Roebke, Labycz Trio"
TITLE "Without Titles"
FILE "01 - Untitled.wav" WAVE
TRACK 01 AUDIO
TITLE "Untitled"
PERFORMER "Gregorio, Roebke, Labycz Trio"
ISRC 000000000000
INDEX 01 00:00:00
FILE "02 - Untitled.wav" WAVE
TRACK 02 AUDIO
TITLE "Untitled"
PERFORMER "Gregorio, Roebke, Labycz Trio"
ISRC 000000000000
INDEX 01 00:00:00
FILE "03 - Untitled.wav" WAVE
TRACK 03 AUDIO
TITLE "Untitled"
PERFORMER "Gregorio, Roebke, Labycz Trio"
ISRC 000000000000
INDEX 01 00:00:00
FILE "04 - Untitled.wav" WAVE
TRACK 04 AUDIO
TITLE "Untitled"
PERFORMER "Gregorio, Roebke, Labycz Trio"
ISRC 000000000000
INDEX 01 00:00:00
FILE "05 - Untitled.wav" WAVE
TRACK 05 AUDIO
TITLE "Untitled"
PERFORMER "Gregorio, Roebke, Labycz Trio"
ISRC 000000000000
INDEX 01 00:00:00
FILE "06 - Untitled.wav" WAVE
TRACK 06 AUDIO
TITLE "Untitled"
PERFORMER "Gregorio, Roebke, Labycz Trio"
ISRC 000000000000
INDEX 01 00:00:00
FILE "07 - Untitled.wav" WAVE
TRACK 07 AUDIO
TITLE "Untitled"
PERFORMER "Gregorio, Roebke, Labycz Trio"
ISRC 000000000000
INDEX 01 00:00:00
FILE "08 - Untitled.wav" WAVE
TRACK 08 AUDIO
TITLE "Untitled"
PERFORMER "Gregorio, Roebke, Labycz Trio"
ISRC 000000000000
INDEX 01 00:00:00
FILE "09 - Untitled.wav" WAVE
TRACK 09 AUDIO
TITLE "Untitled"
PERFORMER "Gregorio, Roebke, Labycz Trio"
ISRC 000000000000
INDEX 01 00:00:00
FILE "10 - Untitled.wav" WAVE
TRACK 10 AUDIO
TITLE "Untitled"
PERFORMER "Gregorio, Roebke, Labycz Trio"
ISRC 000000000000
INDEX 01 00:00:00
 
Доп. информация
Recorded 3/7/2012 at Strobe Recording
 
Об альбоме (сборнике)
In the their follow up release, this trio forgoes the guiding lines of any improvisational score and delves completely into improvisation. At first listen this may not seem to be the case but like anything that is provided time to cultivate and ripen, a second nature can be developed. Titles only get in the way. ~ peira.net
This new CD from the Peira label captures a highly satisfying set of improvisations for Guillermo Gregorio’s clarinet, Jason Roebke’s double bass, and Brian Labycz’s modular synthesizer. In keeping with the music’s fully improvised nature, the tracks remain untitled—the absence of titles constituting a kind of literary parallel to the absence of predetermined structures constraining the performances. Although each of the tracks has its own distinctive qualities, the recording as a whole creates a collective impression rooted in finely-judged textural dynamics and a well-balanced interaction of sound and space. Each piece maintains a discerning proportionality of voice, whereby none of the instruments overshadows the others. This is particularly the case with Labycz’s electronics, the timbres and phrasing of which complement the acoustic instruments without overpowering them. Roebke’s playing, with its mixture of expansive technique and conventional sound production, often acts as a kind of bridge between the electronics and Gregorio’s fluid lines. The combination of wind, strings and electronics creates a rich collection of overlapping and contrasting sounds: scraping bass intersects with brief burst of electronics, while the clarinet reels out rapid runs throughout its entire range, or guttural stabs and trilling squeals. Labycz’s essays into the low frequency range mesh with the bass, while elsewhere free counterpoint is liable to break out at any moment. At times the acoustic instruments even appear to mimic electronic sounds, as when Gregorio’s clarinet shrills or Roebke plays sul ponticello. As is true of the best-honed group improvisations, the playing here gives evidence of a deep musical empathy. ~ dbarbiero, avantmusicnews.com, january 2013
В первые же минуты диска аргентинский (хотя с середины 90-х он живёт в Чикаго) кларнетист Гильермо Грегорио (Guillermo Gregorio) демонстрирует виртуозную технику игры на инструменте: сразу чувствуется старая школа импрова. У него красивый чистый тон, безупречное владение техническими приёмами; не забывает он и о тенденциях последних лет, когда нужно повизжать или пошипеть. Джейсон Робке (Jason Roebke) играет на контрабасе, используя его для производства малоприятных для традиционной школы игры звуков: поскрипывания, пощёлкивания, постанывания и так далее. А Брайан Лабич (Brian Labycz) использует модулярный синтезатор, диапазон звуков которого позволяет музыканту маскировать свои звуки то под кларнет, то под контрабас, оставаясь при этом собой. Как и на релизе Mythic Birds с этого же чикагского лейбла, здесь мы имеем дело с американским импровом, представленным во всей красе. Широчайший динамический спектр, от едва слышимого дуновения в кларнет до почти фри-джазовых мощностей всего трио; неожиданные и стремительные переходы из одного состояния в другое; лёгкость и непринуждённость в игре каждого. Название дисков у Peira часто говорят многое и о музыке. Заголовок “Без названий” как раз из таких: тут 10 безымянных треков и, если при прослушивании нажать кнопку random, то это не повредит их содержимому. Все десять импровизаций равнозначимы и взаимозаменяемы. Если первые три-четыре трека ещё пытаешься обратить внимание на то, где заканчивается один трек и начинается другой, то потом это любопытство отходит на второй план. Остаётся лишь музыкальная составляющая, которую так же сложно анализировать: фактуры сменяют друг друга, но целое остаётся единым. Пожалуй, ведущую роль здесь играет всё же более старший Грегорио, а Лабич и Робке играют с ориентиром на него. Лабич сродни хамелеону, который легко подстраивается под нужный ему цвет: модулярный синт Брайна может быть то где-то позади баса, то чуть опережая его, то спускаясь ещё ниже, а при надобности вполне способен соперничать с кларнетом. Робке создаёт такую среднечастотную палитру, которая больше характерна для виолончелистов-импровизаторов. Все трое играют очень воодушевлённо, наверное, потому 45 минут альбома пролетают почти незаметно. ~ илья белоруков, cmmag.org, 18.03.2013
 
Состав
Guillermo Gregorio - clarinet
Jason Roebke - contrabass
Brian Labycz - modular synthesizer
По всем вопросам пишите личное сообщение пользователю M0p94ok.
17:58
157
Нет комментариев. Ваш будет первым!