Поиск

(modern jazz, folk, fusion) Markku Ounaskari, Samuli Mikkonen, Per Jørgensen (Jorgensen) - Kuára (Kuara): Psalms and Folk Songs [ECM 2116] - 2010, FLAC (tracks+.cue), lossless

Markku Ounaskari, Samuli Mikkonen, Per Jørgensen
Kuára: Psalms and Folk Songs
Жанр: modern jazz, folk, fusion
Страна-производитель диска: Germany
Год издания диска: 2010
Издатель (лейбл): ECM Records
Номер по каталогу: ECM 2116
Аудио кодек: FLAC (*.flac)
Тип рипа: tracks+.cue
Битрейт аудио: lossless
Продолжительность: 00:54:22
Источник (релизер): avaxhome.ws [Juma]
Наличие сканов в содержимом раздачи: да
Треклист:
01. Polychronion
02. Psalm CXXI
03. Tuuin Tuuin
04. Aallot
05. Introit
06. Pitkä pajo
07. Introit / Changing Paths 1
08. The Gipsy’s Stone
09. Pikkumetsä
10. Soldat Keljangúr
11. Mountain Of Sorrow
12. Introit / Changing Paths 2
13. Sjuan Mad’
14. Sjuan Gúr
Исполнители:
Markku Ounaskari · (drums)
Samuli Mikkonen · (piano)
Per Jørgensen · (trumpet, voice)
 
Лог создания рипа
Exact Audio Copy V0.99 prebeta 5 from 4. May 2009
EAC extraction logfile from 3. November 2010, 21:58
Markku Ounaskari, Samuli Mikkonen, Per Jørgensen / Kuára
Used drive : HL-DT-STDVD-RAM GSA-H55N Adapter: 0 ID: 1
Read mode : Secure
Utilize accurate stream : Yes
Defeat audio cache : Yes
Make use of C2 pointers : No
Read offset correction : 102
Overread into Lead-In and Lead-Out : No
Fill up missing offset samples with silence : Yes
Delete leading and trailing silent blocks : No
Null samples used in CRC calculations : Yes
Used interface : Native Win32 interface for Win NT & 2000
Gap handling : Appended to previous track
Used output format : Internal WAV Routines
Sample format : 44.100 Hz; 16 Bit; Stereo
TOC of the extracted CD
Track | Start | Length | Start sector | End sector
---------------------------------------------------------
1 | 0:00.00 | 5:35.60 | 0 | 25184
2 | 5:35.60 | 3:28.02 | 25185 | 40786
3 | 9:03.62 | 3:59.34 | 40787 | 58745
4 | 13:03.21 | 3:09.04 | 58746 | 72924
5 | 16:12.25 | 2:20.04 | 72925 | 83428
6 | 18:32.29 | 4:01.30 | 83429 | 101533
7 | 22:33.59 | 2:55.29 | 101534 | 114687
8 | 25:29.13 | 4:37.33 | 114688 | 135495
9 | 30:06.46 | 2:22.64 | 135496 | 146209
10 | 32:29.35 | 5:57.71 | 146210 | 173055
11 | 38:27.31 | 4:54.22 | 173056 | 195127
12 | 43:21.53 | 2:34.08 | 195128 | 206685
13 | 45:55.61 | 3:41.63 | 206686 | 223323
14 | 49:37.49 | 4:44.73 | 223324 | 244696
Track 1
Filename D:\_Music myRips\Markku Ounaskari, Samuli Mikkonen, Per Jørgensen - Kuára\wav\01 - Polychronion.wav
Pre-gap length 0:00:02.00
Peak level 88.2 %
Track quality 100.0 %
Test CRC 30E02F14
Copy CRC 30E02F14
Track not present in AccurateRip database
Copy OK
Track 2
Filename D:\_Music myRips\Markku Ounaskari, Samuli Mikkonen, Per Jørgensen - Kuára\wav\02 - Psalm CXXI.wav
Peak level 92.5 %
Track quality 100.0 %
Test CRC BB8772B9
Copy CRC BB8772B9
Track not present in AccurateRip database
Copy OK
Track 3
Filename D:\_Music myRips\Markku Ounaskari, Samuli Mikkonen, Per Jørgensen - Kuára\wav\03 - Tuuin Tuuin.wav
Peak level 94.2 %
Track quality 100.0 %
Test CRC FB0835F9
Copy CRC FB0835F9
Track not present in AccurateRip database
Copy OK
Track 4
Filename D:\_Music myRips\Markku Ounaskari, Samuli Mikkonen, Per Jørgensen - Kuára\wav\04 - Aallot.wav
Peak level 95.6 %
Track quality 100.0 %
Test CRC 9AB19193
Copy CRC 9AB19193
Track not present in AccurateRip database
Copy OK
Track 5
Filename D:\_Music myRips\Markku Ounaskari, Samuli Mikkonen, Per Jørgensen - Kuára\wav\05 - Introit.wav
Peak level 44.4 %
Track quality 100.0 %
Test CRC 897FA4DC
Copy CRC 897FA4DC
Track not present in AccurateRip database
Copy OK
Track 6
Filename D:\_Music myRips\Markku Ounaskari, Samuli Mikkonen, Per Jørgensen - Kuára\wav\06 - Pitkä Pajo.wav
Peak level 95.6 %
Track quality 99.9 %
Test CRC 57872B2C
Copy CRC 57872B2C
Track not present in AccurateRip database
Copy OK
Track 7
Filename D:\_Music myRips\Markku Ounaskari, Samuli Mikkonen, Per Jørgensen - Kuára\wav\07 - Introit,Changing Paths (1).wav
Peak level 91.8 %
Track quality 100.0 %
Test CRC C2D4E58B
Copy CRC C2D4E58B
Track not present in AccurateRip database
Copy OK
Track 8
Filename D:\_Music myRips\Markku Ounaskari, Samuli Mikkonen, Per Jørgensen - Kuára\wav\08 - The Gipsy's Stone.wav
Peak level 79.6 %
Track quality 100.0 %
Test CRC FDBDEDCA
Copy CRC FDBDEDCA
Track not present in AccurateRip database
Copy OK
Track 9
Filename D:\_Music myRips\Markku Ounaskari, Samuli Mikkonen, Per Jørgensen - Kuára\wav\09 - Pikkumetsä.wav
Peak level 48.8 %
Track quality 100.0 %
Test CRC E8B1E543
Copy CRC E8B1E543
Track not present in AccurateRip database
Copy OK
Track 10
Filename D:\_Music myRips\Markku Ounaskari, Samuli Mikkonen, Per Jørgensen - Kuára\wav\10 - Soldat Keljangúr.wav
Peak level 83.0 %
Track quality 99.9 %
Test CRC 01CAC691
Copy CRC 01CAC691
Track not present in AccurateRip database
Copy OK
Track 11
Filename D:\_Music myRips\Markku Ounaskari, Samuli Mikkonen, Per Jørgensen - Kuára\wav\11 - Mountain Of Sorrow.wav
Peak level 80.4 %
Track quality 100.0 %
Test CRC FF878B56
Copy CRC FF878B56
Track not present in AccurateRip database
Copy OK
Track 12
Filename D:\_Music myRips\Markku Ounaskari, Samuli Mikkonen, Per Jørgensen - Kuára\wav\12 - Introit,Changing Paths (2).wav
Peak level 80.1 %
Track quality 100.0 %
Test CRC B80CF84A
Copy CRC B80CF84A
Track not present in AccurateRip database
Copy OK
Track 13
Filename D:\_Music myRips\Markku Ounaskari, Samuli Mikkonen, Per Jørgensen - Kuára\wav\13 - Sjuan Mad'.wav
Peak level 95.6 %
Track quality 99.9 %
Test CRC CD70F8B3
Copy CRC CD70F8B3
Track not present in AccurateRip database
Copy OK
Track 14
Filename D:\_Music myRips\Markku Ounaskari, Samuli Mikkonen, Per Jørgensen - Kuára\wav\14 - Sjuan Gúr.wav
Peak level 94.4 %
Track quality 100.0 %
Test CRC 03E21FB3
Copy CRC 03E21FB3
Track not present in AccurateRip database
Copy OK
None of the tracks are present in the AccurateRip database
No errors occurred
End of status report
 
Содержание индексной карты (.cue)
REM GENRE Jazz
REM DATE 2010
REM DISCID CE0CBE0E
REM COMMENT "ExactAudioCopy v0.99pb5"
PERFORMER "Markku Ounaskari, Samuli Mikkonen, Per Jørgensen"
TITLE "Kuára"
FILE "01 - Polychronion.wav" WAVE
TRACK 01 AUDIO
TITLE "Polychronion"
PERFORMER "Markku Ounaskari, Samuli Mikkonen, Per Jørgensen"
INDEX 01 00:00:00
FILE "02 - Psalm CXXI.wav" WAVE
TRACK 02 AUDIO
TITLE "Psalm CXXI"
PERFORMER "Markku Ounaskari, Samuli Mikkonen, Per Jørgensen"
INDEX 01 00:00:00
FILE "03 - Tuuin Tuuin.wav" WAVE
TRACK 03 AUDIO
TITLE "Tuuin Tuuin"
PERFORMER "Markku Ounaskari, Samuli Mikkonen, Per Jørgensen"
INDEX 01 00:00:00
FILE "04 - Aallot.wav" WAVE
TRACK 04 AUDIO
TITLE "Aallot"
PERFORMER "Markku Ounaskari, Samuli Mikkonen, Per Jørgensen"
INDEX 01 00:00:00
FILE "05 - Introit.wav" WAVE
TRACK 05 AUDIO
TITLE "Introit"
PERFORMER "Markku Ounaskari, Samuli Mikkonen, Per Jørgensen"
INDEX 01 00:00:00
FILE "06 - Pitkä Pajo.wav" WAVE
TRACK 06 AUDIO
TITLE "Pitkä Pajo"
PERFORMER "Markku Ounaskari, Samuli Mikkonen, Per Jørgensen"
INDEX 01 00:00:00
FILE "07 - Introit,Changing Paths (1).wav" WAVE
TRACK 07 AUDIO
TITLE "Introit/Changing Paths (1)"
PERFORMER "Markku Ounaskari, Samuli Mikkonen, Per Jørgensen"
INDEX 01 00:00:00
FILE "08 - The Gipsy's Stone.wav" WAVE
TRACK 08 AUDIO
TITLE "The Gipsy's Stone"
PERFORMER "Markku Ounaskari, Samuli Mikkonen, Per Jørgensen"
INDEX 01 00:00:00
FILE "09 - Pikkumetsä.wav" WAVE
TRACK 09 AUDIO
TITLE "Pikkumetsä"
PERFORMER "Markku Ounaskari, Samuli Mikkonen, Per Jørgensen"
INDEX 01 00:00:00
FILE "10 - Soldat Keljangúr.wav" WAVE
TRACK 10 AUDIO
TITLE "Soldat Keljangúr"
PERFORMER "Markku Ounaskari, Samuli Mikkonen, Per Jørgensen"
INDEX 01 00:00:00
FILE "11 - Mountain Of Sorrow.wav" WAVE
TRACK 11 AUDIO
TITLE "Mountain Of Sorrow"
PERFORMER "Markku Ounaskari, Samuli Mikkonen, Per Jørgensen"
INDEX 01 00:00:00
FILE "12 - Introit,Changing Paths (2).wav" WAVE
TRACK 12 AUDIO
TITLE "Introit/Changing Paths (2)"
PERFORMER "Markku Ounaskari, Samuli Mikkonen, Per Jørgensen"
INDEX 01 00:00:00
FILE "13 - Sjuan Mad'.wav" WAVE
TRACK 13 AUDIO
TITLE "Sjuan Mad'"
PERFORMER "Markku Ounaskari, Samuli Mikkonen, Per Jørgensen"
INDEX 01 00:00:00
FILE "14 - Sjuan Gúr.wav" WAVE
TRACK 14 AUDIO
TITLE "Sjuan Gúr"
PERFORMER "Markku Ounaskari, Samuli Mikkonen, Per Jørgensen"
INDEX 01 00:00:00
18:59
270
Нет комментариев. Ваш будет первым!