Поиск

(Brazilian Jazz, Vocal) Tania Maria - Taurus - 1982, APE (image+.cue), lossless

Треклист:
Tania Maria - Taurus
Жанр: Brazilian Jazz, Vocal
Страна-производитель диска: USA
Год издания диска: 1982
Издатель (лейбл): Concord Records
Номер по каталогу: CCD-4175
Аудио кодек: APE (*.ape)
Тип рипа: image+.cue
Битрейт аудио: lossless
Продолжительность: 44:32
Наличие сканов в содержимом раздачи: yes
Источник (релизер): nnm, thanks barin99
Треклист:
1. Tranquility
2. Imagine
3. Bandeira Do Lero
4. Two A.M.
5. Que Vengan los Toros
6. Cry Me a River
7. Eruption
Исполнители:
Tania Maria - Piano, Keyboards, Vocals
Eddie Duran - Guitar
Rob Fisher - Bass
Vince Lateano - Drums
Kent Middleton - Percussion
Willie T. Colon - Percussion, Conga
Recorded at Russian Hill Recording, San Francisco on August 1981.
 
Лог EAC
Exact Audio Copy V0.99 prebeta 5 from 4. May 2009
EAC extraction logfile from 26. February 2010, 21:57
Tania Maria / Taurus
Used drive : TSSTcorpDVD+-RW TS-U633A Adapter: 0 ID: 1
Read mode : Secure
Utilize accurate stream : Yes
Defeat audio cache : Yes
Make use of C2 pointers : No
Read offset correction : 6
Overread into Lead-In and Lead-Out : No
Fill up missing offset samples with silence : Yes
Delete leading and trailing silent blocks : No
Null samples used in CRC calculations : Yes
Used interface : Native Win32 interface for Win NT & 2000
Used output format : Internal WAV Routines
Sample format : 44.100 Hz; 16 Bit; Stereo
TOC of the extracted CD
Track | Start | Length | Start sector | End sector
---------------------------------------------------------
1 | 0:00.37 | 7:47.58 | 37 | 35119
2 | 7:48.20 | 5:22.27 | 35120 | 59296
3 | 13:10.47 | 2:22.35 | 59297 | 69981
4 | 15:33.07 | 7:47.08 | 69982 | 105014
5 | 23:20.15 | 6:56.40 | 105015 | 136254
6 | 30:16.55 | 7:23.55 | 136255 | 169534
7 | 37:40.35 | 6:51.57 | 169535 | 200416
Range status and errors
Selected range
Filename C:\_Arc\EAC_Out\Tania Maria - Taurus\Tania Maria - Taurus.wav
Peak level 98.6 %
Range quality 100.0 %
Copy CRC FE6E67AF
Copy OK
No errors occurred
AccurateRip summary
Track 1 not present in database
Track 2 not present in database
Track 3 not present in database
Track 4 not present in database
Track 5 not present in database
Track 6 not present in database
Track 7 not present in database
None of the tracks are present in the AccurateRip database
End of status report
 
Инфо
Бразильская пианистка, певица и композитор Таня Мария выпустила свой первый альбом более 40 лет назад и с тех пор не перестаёт импровизировать, мягко смешивая бразильские ритмы, фанк, ритм-н-блюз и афро-кубинские мотивы. Она демонстрирует свой уникальный взгляд на музыку, спокойно пересекая границы жанров и традиций, завоёвывая популярность у всё большего количества людей.
Таня Мария Корреа Реис (Tania Maria Correa Reis) родилась 9 мая 1948 года в городе Сан-Луис в северной Бразилии, в семье музыкантов-любителей. В возрасте семи лет она стала брать уроки игры на пианино, на чём настоял её отец. По словам Тани именно он сподвиг её выбрать музыкальную карьеру и дал ей и необходимые навыки, и веру в себя. Уже в тринадцатилетнем возрасте Таня получила приз в региональном конкурсе в составе группы, где лидером был её отец. Впрочем, какое-то время она всё же поизучала юриспруденцию, но страсть к музыке взяла своё. Таня начала выступать в клубах Сан-Паоло и Рио-де-Жанейро. Она была поклонницей бразильского пианиста Луиса Эса (Luiz Eca), который прославился в начале 60-х годов со своим Tamba Trio, исполняющим свинг и боса-нову. Её ноу-хау было в том, что она сделала боса-нову несколько грубоватой и более яркой, что соответствовало её страстному темпераменту. Этим она и покорила публику. Таня покинула Бразилию в 1974 году, успев выпустить на родине два альбома "Apresentamos" (1969) и "Olha Quem Chega" (1971): «Это было время военной диктатуры. Я исполняла музыку с сильным джазовым акцентом, чего бразильцы не понимали: зачем играть музыку родом из Штатов, когда можно исполнять чисто бразильские песни. А джаз уносил меня ввысь, делал меня свободной».
Перебравшись в Париж, Таня сделала себе имя в Европе. На её искромётный стиль обратил внимание джазовый гитарист Чарли Бёрд (Charlie Byrd), который был единственным на тот момент американцем, исполнявшим боса-нову. Чарли порекомендовал её лейблу Concord Jazz, на котором Таня Мария записала ряд альбомов, в том числе "Come with Me" (1982) с массой успешных хитов, а за альбом "Made in New York" (1985, EMI) она номинировалась на "Грэмми" в категории "Лучший женский джазовый вокал". Критики отмечали её своеобразную, довольно жесткую, грубоватую манера игры, а главное узнаваемую сразу, «скэтирующую» манеру пения. Сейчас, спустя много лет, Таня, известная своим глубоким голосом, барабанной манерой игры на пианино и способностью гармонично комбинировать самбу с хип-хопом и фанком, стоит в ряду по-настоящему крупных талантов современной бразильской сцены. Про свою манеру играть Таня говорит так: «Для меня пианино – это ударный инструмент. Ещё мой учитель говорил, что я играю неправильно, слишком отрывисто. Но это получается у меня само собой, возможно, сказывается моё происхождение и темперамент. Хотя я и живу уже много лет в Европе, моё сердце остаётся бразильским». (lastfm, Wiki)Tania Maria на трекере
Официальный сайт
18:58
297
Нет комментариев. Ваш будет первым!