Поиск

(Contemporary Jazz, Flamenco) Alexandre Gismonti Trio - Baiao de domingo - 2009, FLAC (tracks+.cue) lossless

Треклист:
Alexandre Gismonti Trio / Baiao de domingo Жанр: Contemporary Jazz, Flamenco
Год издания диска: 2009
Издатель (лейбл): Fina Flor
Аудио кодек: FLAC (*.flac)
Тип рипа: tracks+.cue
Битрейт аудио: lossless
Источник (релизер): GatoMedio
Наличие сканов в содержимом раздачи: нет
Треклист:
01 Baião De Domingo (para Dominguinhos) [Alexandre Gismonti] (05:04)
02 Saudade Da Bahia [Dorival Caymmi] (04:53)
03 Arrasta-Pé (para Gilberto Gil) [Alexandre Gismonti] (05:33)
04 Asa Branca [Humberto Teixeira, Luiz Gonzaga] (04:27)
05 Chora, Antônio! (para o bisavô Antônio Gismonti) [Alexandre Gismonti] (06:21)
06 O Bem Do Mar [Dorival Caymmi] (03:27)
07 Forrozinho [Alexandre Gismonti] (05:27)
08 Ainda Me Recordo [Benedito Lacerda, Pixinguinha] (03:17)
09 Rítmico E Lento (para Lenine) [Alexandre Gismonti] (05:41)
10 Feira De Mangaio [Glorinha Gadelha, Sivuca] (04:27)
11 Saudades (para a tia Vilma Gismonti) [Alexandre Gismonti] (07:55)
 
Лог создания рипа
Exact Audio Copy V0.99 prebeta 5 from 4. May 2009
EAC extraction logfile from 1. November 2010, 16:09
Alexandre Gismonti Trio / Baiao de domingo
Used drive : HL-DT-STDVD-RAM GSA-H55N Adapter: 0 ID: 0
Read mode : Secure
Utilize accurate stream : Yes
Defeat audio cache : Yes
Make use of C2 pointers : No
Read offset correction : 102
Overread into Lead-In and Lead-Out : No
Fill up missing offset samples with silence : Yes
Delete leading and trailing silent blocks : No
Null samples used in CRC calculations : Yes
Used interface : Native Win32 interface for Win NT & 2000
Gap handling : Appended to previous track
Used output format : Internal WAV Routines
Sample format : 44.100 Hz; 16 Bit; Stereo
TOC of the extracted CD
Track | Start | Length | Start sector | End sector
---------------------------------------------------------
1 | 0:00.00 | 5:04.67 | 0 | 22866
2 | 5:04.67 | 4:53.71 | 22867 | 44912
3 | 9:58.63 | 5:33.03 | 44913 | 69890
4 | 15:31.66 | 4:27.04 | 69891 | 89919
5 | 19:58.70 | 6:21.69 | 89920 | 118563
6 | 26:20.64 | 3:27.40 | 118564 | 134128
7 | 29:48.29 | 5:27.08 | 134129 | 158661
8 | 35:15.37 | 3:17.70 | 158662 | 173506
9 | 38:33.32 | 5:41.19 | 173507 | 199100
10 | 44:14.51 | 4:27.04 | 199101 | 219129
11 | 48:41.55 | 7:55.74 | 219130 | 254828
Track 1
Filename D:\_Music myRips\Alexandre Gismonti Trio\wav\01 - Baiao de domingo.wav
Pre-gap length 0:00:02.00
Peak level 99.8 %
Track quality 99.9 %
Test CRC FA1F55D1
Copy CRC FA1F55D1
Track not present in AccurateRip database
Copy OK
Track 2
Filename D:\_Music myRips\Alexandre Gismonti Trio\wav\02 - Saudade da bahia.wav
Pre-gap length 0:00:01.10
Peak level 99.7 %
Track quality 100.0 %
Test CRC A4744A9B
Copy CRC A4744A9B
Track not present in AccurateRip database
Copy OK
Track 3
Filename D:\_Music myRips\Alexandre Gismonti Trio\wav\03 - Arrasta-pe.wav
Peak level 100.0 %
Track quality 99.9 %
Test CRC BFE60113
Copy CRC BFE60113
Track not present in AccurateRip database
Copy OK
Track 4
Filename D:\_Music myRips\Alexandre Gismonti Trio\wav\04 - Asa branca.wav
Peak level 99.3 %
Track quality 100.0 %
Test CRC 8D8686BE
Copy CRC 8D8686BE
Track not present in AccurateRip database
Copy OK
Track 5
Filename D:\_Music myRips\Alexandre Gismonti Trio\wav\05 - Chora, antonio!.wav
Peak level 100.0 %
Track quality 100.0 %
Test CRC EA89CB9A
Copy CRC EA89CB9A
Track not present in AccurateRip database
Copy OK
Track 6
Filename D:\_Music myRips\Alexandre Gismonti Trio\wav\06 - o bem do mar.wav
Peak level 100.0 %
Track quality 99.9 %
Test CRC 33D73910
Copy CRC 33D73910
Track not present in AccurateRip database
Copy OK
Track 7
Filename D:\_Music myRips\Alexandre Gismonti Trio\wav\07 - Forrozinho.wav
Peak level 99.2 %
Track quality 99.9 %
Test CRC 28B3833F
Copy CRC 28B3833F
Track not present in AccurateRip database
Copy OK
Track 8
Filename D:\_Music myRips\Alexandre Gismonti Trio\wav\08 - Ainda me recordo.wav
Peak level 98.1 %
Track quality 100.0 %
Test CRC 30943023
Copy CRC 30943023
Track not present in AccurateRip database
Copy OK
Track 9
Filename D:\_Music myRips\Alexandre Gismonti Trio\wav\09 - Ritmico e lento.wav
Peak level 98.4 %
Track quality 100.0 %
Test CRC 7FFAB523
Copy CRC 7FFAB523
Track not present in AccurateRip database
Copy OK
Track 10
Filename D:\_Music myRips\Alexandre Gismonti Trio\wav\10 - Feira de mangaio.wav
Peak level 98.5 %
Track quality 100.0 %
Test CRC 5028E3AA
Copy CRC 5028E3AA
Track not present in AccurateRip database
Copy OK
Track 11
Filename D:\_Music myRips\Alexandre Gismonti Trio\wav\11 - Saudades.wav
Peak level 98.2 %
Track quality 100.0 %
Test CRC 0C632F69
Copy CRC 0C632F69
Track not present in AccurateRip database
Copy OK
None of the tracks are present in the AccurateRip database
No errors occurred
End of status report
 
Содержание индексной карты (.CUE)
REM GENRE Instrumental
REM DISCID 7D0D450B
REM COMMENT "ExactAudioCopy v0.99pb5"
PERFORMER "Alexandre Gismonti Trio"
TITLE "Baiao de domingo"
FILE "01 - Baiao de domingo.wav" WAVE
TRACK 01 AUDIO
TITLE "Baiao de domingo"
PERFORMER "Alexandre Gismonti Trio"
ISRC BRFIN0900102
INDEX 01 00:00:00
TRACK 02 AUDIO
TITLE "Saudade da bahia"
PERFORMER "Alexandre Gismonti Trio"
ISRC BRFIN0900103
INDEX 00 05:03:57
FILE "02 - Saudade da bahia.wav" WAVE
INDEX 01 00:00:00
FILE "03 - Arrasta-pe.wav" WAVE
TRACK 03 AUDIO
TITLE "Arrasta-pe"
PERFORMER "Alexandre Gismonti Trio"
ISRC BRFIN0900104
INDEX 01 00:00:00
FILE "04 - Asa branca.wav" WAVE
TRACK 04 AUDIO
TITLE "Asa branca"
PERFORMER "Alexandre Gismonti Trio"
ISRC BRFIN0900104
INDEX 01 00:00:00
FILE "05 - Chora, antonio!.wav" WAVE
TRACK 05 AUDIO
TITLE "Chora, antonio!"
PERFORMER "Alexandre Gismonti Trio"
ISRC BRFIN0900105
INDEX 01 00:00:00
FILE "06 - o bem do mar.wav" WAVE
TRACK 06 AUDIO
TITLE "o bem do mar"
PERFORMER "Alexandre Gismonti Trio"
ISRC BRFIN0900107
INDEX 01 00:00:00
FILE "07 - Forrozinho.wav" WAVE
TRACK 07 AUDIO
TITLE "Forrozinho"
PERFORMER "Alexandre Gismonti Trio"
ISRC BRFIN0900108
INDEX 01 00:00:00
FILE "08 - Ainda me recordo.wav" WAVE
TRACK 08 AUDIO
TITLE "Ainda me recordo"
PERFORMER "Alexandre Gismonti Trio"
ISRC BRFIN0900109
INDEX 01 00:00:00
FILE "09 - Ritmico e lento.wav" WAVE
TRACK 09 AUDIO
TITLE "Ritmico e lento"
PERFORMER "Alexandre Gismonti Trio"
ISRC BRFIN0900110
INDEX 01 00:00:00
FILE "10 - Feira de mangaio.wav" WAVE
TRACK 10 AUDIO
TITLE "Feira de mangaio"
PERFORMER "Alexandre Gismonti Trio"
ISRC BRFIN0900111
INDEX 01 00:00:00
FILE "11 - Saudades.wav" WAVE
TRACK 11 AUDIO
TITLE "Saudades"
PERFORMER "Alexandre Gismonti Trio"
ISRC BRFIN0900112
INDEX 01 00:00:00
 
Лог проверки качества
Started at: пятница, 05. 11. 2010. - 9:30.32
11 files found
01 -===- E:\Музыка\Торренты\Alexandre Gismonti Trio - Baiao de domingo\01 - baiao de domingo.flac
Error while extracting! Check your rights, free some space if needed and ensure the file is valid.
02 -===- E:\Музыка\Торренты\Alexandre Gismonti Trio - Baiao de domingo\02 - saudade da bahia.flac
Extracted successfully
Conclusion: this track is CDDA with probability 100%
Tempfile successfully deleted.
03 -===- E:\Музыка\Торренты\Alexandre Gismonti Trio - Baiao de domingo\03 - arrasta-pe.flac
Error while extracting! Check your rights, free some space if needed and ensure the file is valid.
04 -===- E:\Музыка\Торренты\Alexandre Gismonti Trio - Baiao de domingo\04 - asa branca.flac
Extracted successfully
Conclusion: this track is CDDA with probability 99%
Tempfile successfully deleted.
05 -===- E:\Музыка\Торренты\Alexandre Gismonti Trio - Baiao de domingo\05 - chora, antonio!.flac
Extracted successfully
Conclusion: this track is CDDA with probability 100%
Tempfile successfully deleted.
06 -===- E:\Музыка\Торренты\Alexandre Gismonti Trio - Baiao de domingo\06 - o bem do mar.flac
Extracted successfully
Conclusion: this track is CDDA with probability 100%
Tempfile successfully deleted.
07 -===- E:\Музыка\Торренты\Alexandre Gismonti Trio - Baiao de domingo\07 - forrozinho.flac
Extracted successfully
Conclusion: this track is CDDA with probability 100%
Tempfile successfully deleted.
08 -===- E:\Музыка\Торренты\Alexandre Gismonti Trio - Baiao de domingo\08 - ainda me recordo.flac
Extracted successfully
Conclusion: this track is CDDA with probability 100%
Tempfile successfully deleted.
09 -===- E:\Музыка\Торренты\Alexandre Gismonti Trio - Baiao de domingo\09 - ritmico e lento.flac
Error while extracting! Check your rights, free some space if needed and ensure the file is valid.
10 -===- E:\Музыка\Торренты\Alexandre Gismonti Trio - Baiao de domingo\10 - feira de mangaio.flac
Extracted successfully
Conclusion: this track is CDDA with probability 100%
Tempfile successfully deleted.
11 -===- E:\Музыка\Торренты\Alexandre Gismonti Trio - Baiao de domingo\11 - saudades.flac
Extracted successfully
Conclusion: this track is CDDA with probability 100%
Tempfile successfully deleted.
Finished at: пятница, 05. 11. 2010. - 9:33.10 (operation time: 0:02.3
 
Об альбоме (сборнике)
Alexandre Gismonti made his recording debut last year, playing guitar duets with his father Egberto on the ECM album Saudações. Baião de Domingo is his first CD, leading a trio under his own name. The rest of the group is made up of Mayo Pamplona on bass and Felipe Cotta on percussion. The disc itself and the live performances to launch the CD have received plenty of praise by the Brazilian press. Unfortunately I haven't been able to find any review in English.
 
Состав
Alexandre Gismonti : Violão | acoustic guitar
Felipe Cotta : Percussão | percussion
Mayo Pamplona : Contrabaixo | double bass
Приятных впечатлений!
18:58
286
Нет комментариев. Ваш будет первым!