Поиск

(Bossa Nova/Latin) Clara Moreno (feat. Celso Fonseca & Joyce) - Meu Samba Torto - 2007, FLAC (tracks+.cue) lossless

Треклист:
Clara Moreno (feat. Celso Fonseca & Joyce) / Meu Samba Torto
Жанр: Bossa Nova/Latin
Год издания диска: 2007
Издатель (лейбл): Compass Records
Страна: Brasil
Аудио кодек: FLAC (*.flac)
Тип рипа: tracks+.cue
Битрейт аудио: lossless
Продолжительность: 45:55
Источник (релизер): avaxhome.ws
Наличие сканов в содержимом раздачи: нет
Треклист:
1. Litorânea
2. Sabe Quem?
3. Sei Lá
4. Moça Flor
5. Bahia com H
6. Morena Boca de Ouro
7. Mon Manege a Moi
8. Rosa de Ouro
9. Copacabana
10. Se Acaso Você Chegasse
11. Meu Samba Torto
12. Vem Morena Vem
13. Ela Vai Pro Mar
14. Tenderly
 
Лог создания рипа
Exact Audio Copy V0.99 prebeta 4 from 23. January 2008
EAC extraction logfile from 19. December 2008, 23:32
Clara Moreno / Meu Samba Torto
Used drive : _NEC DVD_RW ND-1300A Adapter: 1 ID: 0
Read mode : Secure
Utilize accurate stream : Yes
Defeat audio cache : Yes
Make use of C2 pointers : No
Read offset correction : 48
Overread into Lead-In and Lead-Out : No
Fill up missing offset samples with silence : Yes
Delete leading and trailing silent blocks : No
Null samples used in CRC calculations : Yes
Used interface : Native Win32 interface for Win NT & 2000
Gap handling : Appended to previous track
Used output format : User Defined Encoder
Selected bitrate : 768 kBit/s
Quality : High
Add ID3 tag : No
Command line compressor : C:\Programfiler\FLAC\flac.exe
Additional command line options : -V -8 -T "artist=%a" -T "title=%t" -T "album=%g" -T "date=%y" -T "tracknumber=%n" -T "genre=%m" %s
TOC of the extracted CD
Track | Start | Length | Start sector | End sector
---------------------------------------------------------
1 | 0:00.00 | 3:52.52 | 0 | 17451
2 | 3:52.52 | 3:17.45 | 17452 | 32271
3 | 7:10.22 | 2:06.39 | 32272 | 41760
4 | 9:16.61 | 2:38.12 | 41761 | 53622
5 | 11:54.73 | 4:13.28 | 53623 | 72625
6 | 16:08.26 | 4:02.70 | 72626 | 90845
7 | 20:11.21 | 2:56.59 | 90846 | 104104
8 | 23:08.05 | 2:23.45 | 104105 | 114874
9 | 25:31.50 | 3:55.44 | 114875 | 132543
10 | 29:27.19 | 1:29.64 | 132544 | 139282
11 | 30:57.08 | 3:21.72 | 139283 | 154429
12 | 34:19.05 | 2:54.49 | 154430 | 167528
13 | 37:13.54 | 3:11.44 | 167529 | 181897
14 | 40:25.23 | 5:29.62 | 181898 | 206634
Track 1
Filename C:\EAC rips\Clara Moreno - 2007 - Meu Samba Torto\01 - Litorвnea.wav
Pre-gap length 0:00:02.00
Peak level 95.3 %
Track quality 100.0 %
Test CRC 0F086A8A
Copy CRC 0F086A8A
Track not present in AccurateRip database
Copy OK
Track 2
Filename C:\EAC rips\Clara Moreno - 2007 - Meu Samba Torto\02 - Sabe Quem .wav
Pre-gap length 0:00:01.38
Peak level 94.7 %
Track quality 100.0 %
Test CRC ED3BAB40
Copy CRC ED3BAB40
Track not present in AccurateRip database
Copy OK
Track 3
Filename C:\EAC rips\Clara Moreno - 2007 - Meu Samba Torto\03 - Sei Lб.wav
Pre-gap length 0:00:01.38
Peak level 95.7 %
Track quality 99.9 %
Test CRC 4FF50EAC
Copy CRC 4FF50EAC
Track not present in AccurateRip database
Copy OK
Track 4
Filename C:\EAC rips\Clara Moreno - 2007 - Meu Samba Torto\04 - Moзa Flor.wav
Pre-gap length 0:00:01.38
Peak level 94.1 %
Track quality 100.0 %
Test CRC A610BD06
Copy CRC A610BD06
Track not present in AccurateRip database
Copy OK
Track 5
Filename C:\EAC rips\Clara Moreno - 2007 - Meu Samba Torto\05 - Bahia Com H.wav
Pre-gap length 0:00:01.38
Peak level 93.9 %
Track quality 99.9 %
Test CRC 66039A1F
Copy CRC 66039A1F
Track not present in AccurateRip database
Copy OK
Track 6
Filename C:\EAC rips\Clara Moreno - 2007 - Meu Samba Torto\06 - Morena Boca De Ouro.wav
Pre-gap length 0:00:01.38
Peak level 93.5 %
Track quality 100.0 %
Test CRC 60B09AF6
Copy CRC 60B09AF6
Track not present in AccurateRip database
Copy OK
Track 7
Filename C:\EAC rips\Clara Moreno - 2007 - Meu Samba Torto\07 - Mon Manege A Moi.wav
Pre-gap length 0:00:01.38
Peak level 94.6 %
Track quality 100.0 %
Test CRC C6E8B988
Copy CRC C6E8B988
Track not present in AccurateRip database
Copy OK
Track 8
Filename C:\EAC rips\Clara Moreno - 2007 - Meu Samba Torto\08 - Rosa De Ouro.wav
Pre-gap length 0:00:01.38
Peak level 95.3 %
Track quality 100.0 %
Test CRC B0499BCB
Copy CRC B0499BCB
Track not present in AccurateRip database
Copy OK
Track 9
Filename C:\EAC rips\Clara Moreno - 2007 - Meu Samba Torto\09 - Copacabana.wav
Pre-gap length 0:00:01.38
Peak level 95.7 %
Track quality 100.0 %
Test CRC 35D75430
Copy CRC 35D75430
Track not present in AccurateRip database
Copy OK
Track 10
Filename C:\EAC rips\Clara Moreno - 2007 - Meu Samba Torto\10 - Se Acaso Vocк Chegasse.wav
Pre-gap length 0:00:01.38
Peak level 98.3 %
Track quality 100.0 %
Test CRC DE9ADD0E
Copy CRC DE9ADD0E
Track not present in AccurateRip database
Copy OK
Track 11
Filename C:\EAC rips\Clara Moreno - 2007 - Meu Samba Torto\11 - Meu Samba Torto.wav
Pre-gap length 0:00:01.38
Peak level 91.9 %
Track quality 100.0 %
Test CRC 05CCFB97
Copy CRC 05CCFB97
Track not present in AccurateRip database
Copy OK
Track 12
Filename C:\EAC rips\Clara Moreno - 2007 - Meu Samba Torto\12 - Vem Morena Vem.wav
Pre-gap length 0:00:01.38
Peak level 100.0 %
Track quality 99.9 %
Test CRC 3E42E8C4
Copy CRC 3E42E8C4
Track not present in AccurateRip database
Copy OK
Track 13
Filename C:\EAC rips\Clara Moreno - 2007 - Meu Samba Torto\13 - Ela Vai Pro Mar.wav
Pre-gap length 0:00:01.38
Peak level 94.2 %
Track quality 99.9 %
Test CRC 0C0805D6
Copy CRC 0C0805D6
Track not present in AccurateRip database
Copy OK
Track 14
Filename C:\EAC rips\Clara Moreno - 2007 - Meu Samba Torto\14 - Tenderly.wav
Pre-gap length 0:00:01.38
Peak level 95.9 %
Track quality 100.0 %
Test CRC 51196883
Copy CRC 51196883
Track not present in AccurateRip database
Copy OK
None of the tracks are present in the AccurateRip database
No errors occurred
End of status report
 
Содержание индексной карты (.CUE)
REM GENRE Latin
REM DATE 2007
REM DISCID B60AC30E
REM COMMENT "ExactAudioCopy v0.99pb4"
FILE "01 - Litoranea.flac" WAVE
TRACK 01 AUDIO
INDEX 01 00:00:00
TRACK 02 AUDIO
INDEX 00 03:51:14
FILE "02 - Sabe Quem.flac" WAVE
INDEX 01 00:00:00
TRACK 03 AUDIO
INDEX 00 03:16:07
FILE "03 - Sei La.flac" WAVE
INDEX 01 00:00:00
TRACK 04 AUDIO
INDEX 00 02:05:01
FILE "04 - Moca Flor.flac" WAVE
INDEX 01 00:00:00
TRACK 05 AUDIO
INDEX 00 02:36:49
FILE "05 - Bahia Com H.flac" WAVE
INDEX 01 00:00:00
TRACK 06 AUDIO
INDEX 00 04:11:65
FILE "06 - Morena Boca De Ouro.flac" WAVE
INDEX 01 00:00:00
TRACK 07 AUDIO
INDEX 00 04:01:32
FILE "07 - Mon Manege A Moi.flac" WAVE
INDEX 01 00:00:00
TRACK 08 AUDIO
INDEX 00 02:55:21
FILE "08 - Rosa De Ouro.flac" WAVE
INDEX 01 00:00:00
TRACK 09 AUDIO
INDEX 00 02:22:07
FILE "09 - Copacabana.flac" WAVE
INDEX 01 00:00:00
TRACK 10 AUDIO
INDEX 00 03:54:06
FILE "10 - Se Acaso Voce Chegasse.flac" WAVE
INDEX 01 00:00:00
TRACK 11 AUDIO
INDEX 00 01:28:26
FILE "11 - Meu Samba Torto.flac" WAVE
INDEX 01 00:00:00
TRACK 12 AUDIO
INDEX 00 03:20:34
FILE "12 - Vem Morena Vem.flac" WAVE
INDEX 01 00:00:00
TRACK 13 AUDIO
INDEX 00 02:53:11
FILE "13 - Ela Vai Pro Mar.flac" WAVE
INDEX 01 00:00:00
TRACK 14 AUDIO
INDEX 00 03:10:06
FILE "14 - Tenderly.flac" WAVE
INDEX 01 00:00:00
 
Лог проверки качества
AUDIOCHECKER v2.0 beta (build 457) - by Dester - opdester@freemail.hu
~~~~~~~~~~~~~~~~~~~~~~~~~~~~~~~~~~
Started at: понедельник, 01. 11. 2010. - 20:25.20
14 files found
01 -===- D:\Loaded\Clara Moreno - 2007 - Meu Samba Torto\14 - Tenderly.flac
Extracted successfully
Conclusion: this track is CDDA with probability 100%
Tempfile successfully deleted.
02 -===- D:\Loaded\Clara Moreno - 2007 - Meu Samba Torto\01 - Litoranea.flac
Extracted successfully
Conclusion: this track is CDDA with probability 100%
Tempfile successfully deleted.
03 -===- D:\Loaded\Clara Moreno - 2007 - Meu Samba Torto\02 - Sabe Quem.flac
Extracted successfully
Conclusion: this track is CDDA with probability 100%
Tempfile successfully deleted.
04 -===- D:\Loaded\Clara Moreno - 2007 - Meu Samba Torto\03 - Sei La.flac
Extracted successfully
Conclusion: this track is CDDA with probability 100%
Tempfile successfully deleted.
05 -===- D:\Loaded\Clara Moreno - 2007 - Meu Samba Torto\04 - Moca Flor.flac
Extracted successfully
Conclusion: this track is CDDA with probability 100%
Tempfile successfully deleted.
06 -===- D:\Loaded\Clara Moreno - 2007 - Meu Samba Torto\05 - Bahia Com H.flac
Extracted successfully
Conclusion: this track is CDDA with probability 100%
Tempfile successfully deleted.
07 -===- D:\Loaded\Clara Moreno - 2007 - Meu Samba Torto\06 - Morena Boca De Ouro.flac
Extracted successfully
Conclusion: this track is CDDA with probability 100%
Tempfile successfully deleted.
08 -===- D:\Loaded\Clara Moreno - 2007 - Meu Samba Torto\07 - Mon Manege A Moi.flac
Extracted successfully
Conclusion: this track is CDDA with probability 100%
Tempfile successfully deleted.
09 -===- D:\Loaded\Clara Moreno - 2007 - Meu Samba Torto\08 - Rosa De Ouro.flac
Extracted successfully
Conclusion: this track is CDDA with probability 100%
Tempfile successfully deleted.
10 -===- D:\Loaded\Clara Moreno - 2007 - Meu Samba Torto\09 - Copacabana.flac
Extracted successfully
Conclusion: this track is CDDA with probability 99%
Tempfile successfully deleted.
11 -===- D:\Loaded\Clara Moreno - 2007 - Meu Samba Torto\10 - Se Acaso Voce Chegasse.flac
Extracted successfully
Conclusion: this track is CDDA with probability 100%
Tempfile successfully deleted.
12 -===- D:\Loaded\Clara Moreno - 2007 - Meu Samba Torto\11 - Meu Samba Torto.flac
Extracted successfully
Conclusion: this track is CDDA with probability 100%
Tempfile successfully deleted.
13 -===- D:\Loaded\Clara Moreno - 2007 - Meu Samba Torto\12 - Vem Morena Vem.flac
Extracted successfully
Conclusion: this track is CDDA with probability 100%
Tempfile successfully deleted.
14 -===- D:\Loaded\Clara Moreno - 2007 - Meu Samba Torto\13 - Ela Vai Pro Mar.flac
Extracted successfully
Conclusion: this track is CDDA with probability 100%
Tempfile successfully deleted.
Finished at: понедельник, 01. 11. 2010. - 20:51.15 (operation time: 0:25.54)
17:57
216
Нет комментариев. Ваш будет первым!