Поиск

(Jazz, World Fusion) Tananas - Alive in Jo'burg - 2001, FLAC (tracks+.cue) lossless

Треклист:
Tananas / Alive in Jo'burg
Жанр: Jazz, World Fusion
Год издания диска: 2001
Издатель (лейбл): SONY
Номер по каталогу: 502498 2
Страна: South Africa
Аудио кодек: FLAC (*.flac)
Тип рипа: tracks+.cue
Битрейт аудио: lossless
Продолжительность: 01:08:18
Источник (релизер): найдено в сети
Наличие сканов в содержимом раздачи: да
Треклист:
1. Standanyobo
2. Ngoma
3. Khiribheke
4. Sambanessa
5. Thru Lines
6. Spiral
7. Inhlalini
8. Tocamos Todos Dias
9. Hard Hat Jive
10. Lua
11. Tananas
12. Caminhos
13. Cabo
14. Oyoyo
 
Лог создания рипа
Exact Audio Copy V0.99 prebeta 3 from 28. July 2007
EAC extraction logfile from 15. November 2008, 18:41
Tananas / Alive In Jo'burg
Used drive : TSSTcorpCD/DVDW TS-L632M Adapter: 0 ID: 0
Read mode : Secure
Utilize accurate stream : Yes
Defeat audio cache : Yes
Make use of C2 pointers : No
Read offset correction : 102
Overread into Lead-In and Lead-Out : No
Fill up missing offset samples with silence : Yes
Delete leading and trailing silent blocks : No
Null samples used in CRC calculations : Yes
Used interface : Native Win32 interface for Win NT & 2000
Gap handling : Appended to previous track
Used output format : User Defined Encoder
Selected bitrate : 1024 kBit/s
Quality : High
Add ID3 tag : No
Command line compressor : C:\Program Files\Exact Audio Copy\FLAC\FLAC.EXE
Additional command line options : -6 -V -T "ARTIST=%a" -T "TITLE=%t" -T "ALBUM=%g" -T "DATE=%y" -T "TRACKNUMBER=%n" -T "GENRE=%m" -T "COMMENT=%e" %s -o %d
TOC of the extracted CD
Track | Start | Length | Start sector | End sector
---------------------------------------------------------
1 | 0:00.00 | 6:35.65 | 0 | 29689
2 | 6:35.65 | 6:21.70 | 29690 | 58334
3 | 12:57.60 | 4:58.10 | 58335 | 80694
4 | 17:55.70 | 4:15.42 | 80695 | 99861
5 | 22:11.37 | 4:21.23 | 99862 | 119459
6 | 26:32.60 | 3:10.52 | 119460 | 133761
7 | 29:43.37 | 3:40.28 | 133762 | 150289
8 | 33:23.65 | 2:44.15 | 150290 | 162604
9 | 36:08.05 | 4:50.52 | 162605 | 184406
10 | 40:58.57 | 3:58.40 | 184407 | 202296
11 | 44:57.22 | 7:07.73 | 202297 | 234394
12 | 52:05.20 | 6:18.20 | 234395 | 262764
13 | 58:23.40 | 4:25.57 | 262765 | 282696
14 | 62:49.22 | 5:29.17 | 282697 | 307388
Track 1
Filename D:\GLAZBA\zzzz novo\Tananas - Alive in Jo`burg (2001) FLAC\01 - Standanyobo.wav
Pre-gap length 0:00:02.00
Peak level 99.9 %
Track quality 100.0 %
Test CRC DCAF2196
Copy CRC DCAF2196
Copy OK
Track 2
Filename D:\GLAZBA\zzzz novo\Tananas - Alive in Jo`burg (2001) FLAC\02 - Ngoma.wav
Peak level 99.9 %
Track quality 100.0 %
Test CRC FEC7155C
Copy CRC FEC7155C
Copy OK
Track 3
Filename D:\GLAZBA\zzzz novo\Tananas - Alive in Jo`burg (2001) FLAC\03 - Khiribheke.wav
Peak level 100.0 %
Track quality 100.0 %
Test CRC 1D709898
Copy CRC 1D709898
Copy OK
Track 4
Filename D:\GLAZBA\zzzz novo\Tananas - Alive in Jo`burg (2001) FLAC\04 - Sambanessa.wav
Peak level 99.9 %
Track quality 100.0 %
Test CRC 95B0306A
Copy CRC 95B0306A
Copy OK
Track 5
Filename D:\GLAZBA\zzzz novo\Tananas - Alive in Jo`burg (2001) FLAC\05 - Thru Lines.wav
Peak level 99.9 %
Track quality 99.9 %
Test CRC E3DE9D16
Copy CRC E3DE9D16
Copy OK
Track 6
Filename D:\GLAZBA\zzzz novo\Tananas - Alive in Jo`burg (2001) FLAC\06 - Spiral.wav
Peak level 100.0 %
Track quality 100.0 %
Test CRC 33873D43
Copy CRC 33873D43
Copy OK
Track 7
Filename D:\GLAZBA\zzzz novo\Tananas - Alive in Jo`burg (2001) FLAC\07 - Inhlalini.wav
Peak level 100.0 %
Track quality 100.0 %
Test CRC 14A120B3
Copy CRC 14A120B3
Copy OK
Track 8
Filename D:\GLAZBA\zzzz novo\Tananas - Alive in Jo`burg (2001) FLAC\08 - Tocamos Todos Dias.wav
Peak level 99.9 %
Track quality 100.0 %
Test CRC 0EFF5C35
Copy CRC 0EFF5C35
Copy OK
Track 9
Filename D:\GLAZBA\zzzz novo\Tananas - Alive in Jo`burg (2001) FLAC\09 - Hard Hat Jive.wav
Peak level 100.0 %
Track quality 100.0 %
Test CRC F85ACCE0
Copy CRC F85ACCE0
Copy OK
Track 10
Filename D:\GLAZBA\zzzz novo\Tananas - Alive in Jo`burg (2001) FLAC\10 - Lua.wav
Peak level 99.9 %
Track quality 100.0 %
Test CRC BF8E045B
Copy CRC BF8E045B
Copy OK
Track 11
Filename D:\GLAZBA\zzzz novo\Tananas - Alive in Jo`burg (2001) FLAC\11 - Tananas.wav
Peak level 90.9 %
Track quality 100.0 %
Test CRC FC8A01C5
Copy CRC FC8A01C5
Copy OK
Track 12
Filename D:\GLAZBA\zzzz novo\Tananas - Alive in Jo`burg (2001) FLAC\12 - Caminhos.wav
Peak level 100.0 %
Track quality 100.0 %
Test CRC 2016454E
Copy CRC 2016454E
Copy OK
Track 13
Filename D:\GLAZBA\zzzz novo\Tananas - Alive in Jo`burg (2001) FLAC\13 - Cabo.wav
Peak level 99.9 %
Track quality 100.0 %
Test CRC 68A985C1
Copy CRC 68A985C1
Copy OK
Track 14
Filename D:\GLAZBA\zzzz novo\Tananas - Alive in Jo`burg (2001) FLAC\14 - Oyoyo.wav
Peak level 99.9 %
Track quality 100.0 %
Test CRC F9FF644A
Copy CRC F9FF644A
Copy OK
No errors occurred
End of status report
 
Содержание индексной карты (.CUE)
REM GENRE Jazz
REM DATE 2001
REM DISCID D010020E
REM COMMENT "ExactAudioCopy v0.99pb3"
PERFORMER "Tananas"
TITLE "Alive In Jo'burg"
FILE "01 - Standanyobo.wav" WAVE
TRACK 01 AUDIO
TITLE "Standanyobo"
PERFORMER "Tananas"
INDEX 01 00:00:00
FILE "02 - Ngoma.wav" WAVE
TRACK 02 AUDIO
TITLE "Ngoma"
PERFORMER "Tananas"
INDEX 01 00:00:00
FILE "03 - Khiribheke.wav" WAVE
TRACK 03 AUDIO
TITLE "Khiribheke"
PERFORMER "Tananas"
INDEX 01 00:00:00
FILE "04 - Sambanessa.wav" WAVE
TRACK 04 AUDIO
TITLE "Sambanessa"
PERFORMER "Tananas"
INDEX 01 00:00:00
FILE "05 - Thru Lines.wav" WAVE
TRACK 05 AUDIO
TITLE "Thru Lines"
PERFORMER "Tananas"
INDEX 01 00:00:00
FILE "06 - Spiral.wav" WAVE
TRACK 06 AUDIO
TITLE "Spiral"
PERFORMER "Tananas"
INDEX 01 00:00:00
FILE "07 - Inhlalini.wav" WAVE
TRACK 07 AUDIO
TITLE "Inhlalini"
PERFORMER "Tananas"
INDEX 01 00:00:00
FILE "08 - Tocamos Todos Dias.wav" WAVE
TRACK 08 AUDIO
TITLE "Tocamos Todos Dias"
PERFORMER "Tananas"
INDEX 01 00:00:00
FILE "09 - Hard Hat Jive.wav" WAVE
TRACK 09 AUDIO
TITLE "Hard Hat Jive"
PERFORMER "Tananas"
INDEX 01 00:00:00
FILE "10 - Lua.wav" WAVE
TRACK 10 AUDIO
TITLE "Lua"
PERFORMER "Tananas"
INDEX 01 00:00:00
FILE "11 - Tananas.wav" WAVE
TRACK 11 AUDIO
TITLE "Tananas"
PERFORMER "Tananas"
INDEX 01 00:00:00
FILE "12 - Caminhos.wav" WAVE
TRACK 12 AUDIO
TITLE "Caminhos"
PERFORMER "Tananas"
INDEX 01 00:00:00
FILE "13 - Cabo.wav" WAVE
TRACK 13 AUDIO
TITLE "Cabo"
PERFORMER "Tananas"
INDEX 01 00:00:00
FILE "14 - Oyoyo.wav" WAVE
TRACK 14 AUDIO
TITLE "Oyoyo"
PERFORMER "Tananas"
INDEX 01 00:00:00
 
Лог проверки качества
AUDIOCHECKER v2.0 beta (build 457) - by Dester - opdester@freemail.hu
~~~~~~~~~~~~~~~~~~~~~~~~~~~~~~~~~~
-=== DO NOT EDIT THIS FILE! ===-
Path: ...\Tananas - Alive in Jo'burg (2001)
01 -=- 01 - Standanyobo.flac -=- CDDA (100%)
02 -=- 02 - Ngoma.flac -=- CDDA (100%)
03 -=- 03 - Khiribheke.flac -=- CDDA (100%)
04 -=- 04 - Sambanessa.flac -=- CDDA (100%)
05 -=- 05 - Thru Lines.flac -=- CDDA (100%)
06 -=- 06 - Spiral.flac -=- CDDA (100%)
07 -=- 07 - Inhlalini.flac -=- CDDA (99%)
08 -=- 08 - Tocamos Todos Dias.flac -=- CDDA (100%)
09 -=- 09 - Hard Hat Jive.flac -=- CDDA (100%)
10 -=- 10 - Lua.flac -=- CDDA (100%)
11 -=- 11 - Tananas.flac -=- CDDA (100%)
12 -=- 12 - Caminhos.flac -=- CDDA (100%)
13 -=- 13 - Cabo.flac -=- CDDA (100%)
14 -=- 14 - Oyoyo.flac -=- CDDA (100%)
Summary 99,93% CDDA
33739620
 
Об исполнителе (группе)
Tananas это Южноафриканская группа, образованная в 1987 году. Первоначально она состояла из жителей Мозамбика Gito Baloi (бас-гитара и вокал), Ian Herman (барабаны и перкуссия) и Steve Newman (акустическая гитара). Первые записи были сделаны на независимом лейбле Shifty Records. Tananas сочетает джаз, сальса Мозамбика и поселковый джайв (или mbaqanga ). Они выпустили восемь альбомов, последние два на лейбле Sony.
Музыканты Tananas работали индивидуально или в группе с Paul Simon и Sting , Bonnie Raitt , Suzanne Vega и Youssou N'dour .
19:00
269
Нет комментариев. Ваш будет первым!