Поиск

(World Fusion, Modern Creative, Klezmer Jazz) Yom [Guillaume Humrey] - Unue (Unué) - 2009, FLAC (tracks+.cue) lossless

(World Fusion, Modern Creative, Klezmer Jazz) Yom [Guillaume Humrey] - Unue (Unué) - 2009, FLAC (tracks+.cue) lossless
Треклист:
Yom «Unue» («Unué»)
Жанр/Стиль: Modern Creative, Klezmer Jazz, World Fusion
Страна: France
Лейбл: Buda Musique / DuNose Productions
Год издания: 2009
Аудиокодек: FLAC
Тип рипа: tracks
Битрейт аудио: lossless
Источник: what.cd
Наличие сканов в содержимом раздачи: нет
Продолжительность: 00:45:51
Tracklist:
01. Unué (feat. Lurie Morar) (01:21)
02. Apparition (feat. Wang Li) (03:56)
03. Rêve De L'Enfantt (feat. Lurie Morar) (04:02)
04. Petite Fille (feat. Ibrahim Maalouf) (04:43)
05. La Traversée (feat. Lurie Morar) (03:52)
06. Unué (feat. Bijan Chemirani) (01:04)
07. Une Epopée (feat. Bijan Chemirani) (04:36)
08. Unué (feat. Farid D) (00:49)
09. Réfléxions (feat. Wang Li) (05:13)
10. Unué (feat. Denis Cuniot) (01:03)
11. Souvenirs (feat. Denis Cuniot) (04:08)
12. Unué (feat. Ibrahim Maalouf) (00:54)
13. Apocalypse (feat. Wang Li) (03:40)
14. Au Commencement (feat. Farid D) (06:30)
Personnel:
Yom (Guillaume Humrey): clarinet
Benoit Giffard: tuba, trombone
Denis Cuniot: piano
Alexandre Giffard: tapan
 
Log EAC
Exact Audio Copy V0.99 prebeta 5 from 4. May 2009
EAC extraction logfile from 26. May 2010, 21:36
Yom / Unue
Used drive : HL-DT-STDVD+-RW GSA-S10N Adapter: 1 ID: 0
Read mode : Secure
Utilize accurate stream : Yes
Defeat audio cache : Yes
Make use of C2 pointers : No
Read offset correction : 667
Overread into Lead-In and Lead-Out : No
Fill up missing offset samples with silence : Yes
Delete leading and trailing silent blocks : No
Null samples used in CRC calculations : Yes
Used interface : Native Win32 interface for Win NT & 2000
Gap handling : Appended to previous track
Used output format : User Defined Encoder
Selected bitrate : 128 kBit/s
Quality : High
Add ID3 tag : No
Command line compressor : C:\Program Files (x86)\Exact Audio Copy\Flac\flac.exe
Additional command line options : -V -8 -T "artist=%a" -T "title=%t" -T "album=%g" -T "date=%y" -T "tracknumber=%n" -T "genre=%m" %s
TOC of the extracted CD
Track | Start | Length | Start sector | End sector
---------------------------------------------------------
1 | 0:00.00 | 1:21.12 | 0 | 6086
2 | 1:21.12 | 3:56.68 | 6087 | 23854
3 | 5:18.05 | 4:02.12 | 23855 | 42016
4 | 9:20.17 | 4:43.44 | 42017 | 63285
5 | 14:03.61 | 3:52.22 | 63286 | 80707
6 | 17:56.08 | 1:04.10 | 80708 | 85517
7 | 19:00.18 | 4:36.65 | 85518 | 106282
8 | 23:37.08 | 0:49.20 | 106283 | 109977
9 | 24:26.28 | 5:13.53 | 109978 | 133505
10 | 29:40.06 | 1:03.26 | 133506 | 138256
11 | 30:43.32 | 4:08.17 | 138257 | 156873
12 | 34:51.49 | 0:54.34 | 156874 | 160957
13 | 35:46.08 | 3:40.13 | 160958 | 177470
14 | 39:26.21 | 6:30.72 | 177471 | 206792
Track 1
Filename C:\Users\Adrien\Documents\EAC Rips\Yom - - Unue\01 - Unue.wav
Pre-gap length 0:00:02.00
Peak level 70.0 %
Track quality 100.0 %
Test CRC D2CA2FD0
Copy CRC D2CA2FD0
Track not present in AccurateRip database
Copy OK
Track 2
Filename C:\Users\Adrien\Documents\EAC Rips\Yom - - Unue\02 - Apparition.wav
Peak level 100.0 %
Track quality 100.0 %
Test CRC ADE41465
Copy CRC ADE41465
Track not present in AccurateRip database
Copy OK
Track 3
Filename C:\Users\Adrien\Documents\EAC Rips\Yom - - Unue\03 - Rкve de l'enfant.wav
Peak level 100.0 %
Track quality 100.0 %
Test CRC 97F9649F
Copy CRC 97F9649F
Track not present in AccurateRip database
Copy OK
Track 4
Filename C:\Users\Adrien\Documents\EAC Rips\Yom - - Unue\04 - Ma petite.wav
Peak level 100.0 %
Track quality 99.9 %
Test CRC 74FCC1B8
Copy CRC 74FCC1B8
Track not present in AccurateRip database
Copy OK
Track 5
Filename C:\Users\Adrien\Documents\EAC Rips\Yom - - Unue\05 - La traversйe.wav
Peak level 100.0 %
Track quality 100.0 %
Test CRC FAA06084
Copy CRC FAA06084
Track not present in AccurateRip database
Copy OK
Track 6
Filename C:\Users\Adrien\Documents\EAC Rips\Yom - - Unue\06 - Unue.wav
Peak level 100.0 %
Track quality 100.0 %
Test CRC 9BAEBC8A
Copy CRC 9BAEBC8A
Track not present in AccurateRip database
Copy OK
Track 7
Filename C:\Users\Adrien\Documents\EAC Rips\Yom - - Unue\07 - Une йpopйe.wav
Peak level 100.0 %
Track quality 100.0 %
Test CRC 116D5C2F
Copy CRC 116D5C2F
Track not present in AccurateRip database
Copy OK
Track 8
Filename C:\Users\Adrien\Documents\EAC Rips\Yom - - Unue\08 - Unue.wav
Peak level 49.9 %
Track quality 100.0 %
Test CRC 9D74ADB9
Copy CRC 9D74ADB9
Track not present in AccurateRip database
Copy OK
Track 9
Filename C:\Users\Adrien\Documents\EAC Rips\Yom - - Unue\09 - Rйflexions.wav
Peak level 100.0 %
Track quality 100.0 %
Test CRC 343FEE98
Copy CRC 343FEE98
Track not present in AccurateRip database
Copy OK
Track 10
Filename C:\Users\Adrien\Documents\EAC Rips\Yom - - Unue\10 - Unue.wav
Peak level 75.1 %
Track quality 100.0 %
Test CRC 94C686E3
Copy CRC 94C686E3
Track not present in AccurateRip database
Copy OK
Track 11
Filename C:\Users\Adrien\Documents\EAC Rips\Yom - - Unue\11 - Souvenirs.wav
Peak level 100.0 %
Track quality 100.0 %
Test CRC 124A02BE
Copy CRC 124A02BE
Track not present in AccurateRip database
Copy OK
Track 12
Filename C:\Users\Adrien\Documents\EAC Rips\Yom - - Unue\12 - Unue.wav
Peak level 100.0 %
Track quality 99.8 %
Test CRC F3E32753
Copy CRC F3E32753
Track not present in AccurateRip database
Copy OK
Track 13
Filename C:\Users\Adrien\Documents\EAC Rips\Yom - - Unue\13 - Apocalypse.wav
Peak level 100.0 %
Track quality 99.9 %
Test CRC CA70646F
Copy CRC CA70646F
Track not present in AccurateRip database
Copy OK
Track 14
Filename C:\Users\Adrien\Documents\EAC Rips\Yom - - Unue\14 - Au commencement.wav
Pre-gap length 0:00:03.25
Peak level 100.0 %
Track quality 100.0 %
Test CRC 97090051
Copy CRC 97090051
Track not present in AccurateRip database
Copy OK
None of the tracks are present in the AccurateRip database
No errors occurred
End of status report
 
.CUE
REM DISCID BE0AC50E
REM COMMENT "ExactAudioCopy v0.99pb5"
FILE "Yom - - Unue\01 - Unue.wav" WAVE
TRACK 01 AUDIO
INDEX 01 00:00:00
FILE "Yom - - Unue\02 - Apparition.wav" WAVE
TRACK 02 AUDIO
INDEX 01 00:00:00
FILE "Yom - - Unue\03 - Rкve de l'enfant.wav" WAVE
TRACK 03 AUDIO
INDEX 01 00:00:00
FILE "Yom - - Unue\04 - Ma petite.wav" WAVE
TRACK 04 AUDIO
INDEX 01 00:00:00
FILE "Yom - - Unue\05 - La traversйe.wav" WAVE
TRACK 05 AUDIO
INDEX 01 00:00:00
FILE "Yom - - Unue\06 - Unue.wav" WAVE
TRACK 06 AUDIO
INDEX 01 00:00:00
FILE "Yom - - Unue\07 - Une йpopйe.wav" WAVE
TRACK 07 AUDIO
INDEX 01 00:00:00
FILE "Yom - - Unue\08 - Unue.wav" WAVE
TRACK 08 AUDIO
INDEX 01 00:00:00
FILE "Yom - - Unue\09 - Rйflexions.wav" WAVE
TRACK 09 AUDIO
INDEX 01 00:00:00
FILE "Yom - - Unue\10 - Unue.wav" WAVE
TRACK 10 AUDIO
INDEX 01 00:00:00
FILE "Yom - - Unue\11 - Souvenirs.wav" WAVE
TRACK 11 AUDIO
INDEX 01 00:00:00
FILE "Yom - - Unue\12 - Unue.wav" WAVE
TRACK 12 AUDIO
INDEX 01 00:00:00
FILE "Yom - - Unue\13 - Apocalypse.wav" WAVE
TRACK 13 AUDIO
INDEX 01 00:00:00
TRACK 14 AUDIO
INDEX 00 03:36:69
FILE "Yom - - Unue\14 - Au commencement.wav" WAVE
INDEX 01 00:00:00
 
auCDtect TM
-----------------------
DON'T MODIFY THIS FILE
-----------------------
PERFORMER: auCDtect Task Manager, ver. 1.0.1 RC1 build 1.0.1.1
Copyright (c) 2008, 2009 y-soft. All rights reserved
http://y-soft.110mb.com
ANALYZER: auCDtect: CD records authenticity detector, version 0.8.2
Copyright (c) 2004 Oleg Berngardt. All rights reserved.
Copyright (c) 2004 Alexander Djourik. All rights reserved.
FILE: 01 - Unue.flac
Size: 6047689 Hash: DE021D8526D9B0CAC7500040E6D29F76 Accuracy: -m0
Conclusion: CDDA 100%
Signature: 08D2939248FE6D361E763DE110F97FB046FE25C7
FILE: 02 - Apparition.flac
Size: 26282334 Hash: 973F03D21A1AB2F85A15DD8FD37D971C Accuracy: -m0
Conclusion: CDDA 100%
Signature: 69F6FB827AF788FFC270291A2F44ABAF9CB7BF09
FILE: 03 - Reve de l'enfant.flac
Size: 20027029 Hash: B330A449CECCEA020EB22D16276E47DC Accuracy: -m0
Conclusion: CDDA 100%
Signature: 0FEDB522076DDAD40B3AF78CE42DD00218410784
FILE: 04 - Ma petite.flac
Size: 21501208 Hash: 56446B8E7E9354D79997B1B720C3E762 Accuracy: -m0
Conclusion: CDDA 100%
Signature: D82BB2D559CD70001173D45A786181BFC5038422
FILE: 05 - La traversee.flac
Size: 25083635 Hash: 044D998E16B5750A230A9B0296E61805 Accuracy: -m0
Conclusion: CDDA 100%
Signature: 0CC6CDD3FD74333F27B7121473F0B60BDE08C8FB
FILE: 06 - Unue.flac
Size: 5450814 Hash: 3949B1FF50F8AB36CC80C6937ED2DD21 Accuracy: -m0
Conclusion: CDDA 100%
Signature: 72330BE52657836D0A88673F603A994E07DDFAD5
FILE: 07 - Une epopee.flac
Size: 26425450 Hash: C1CDB21C09B91D208402CF268AA9C499 Accuracy: -m0
Conclusion: CDDA 100%
Signature: 621855F7C69FA302C8C7346FBCAE47737BFC0D1D
FILE: 08 - Unue.flac
Size: 3704504 Hash: 9295AADF7E31B77C547DE65046D61230 Accuracy: -m0
Conclusion: CDDA 99%
Signature: 45296B7D34F3758390F9A291A2A672B949DD01D0
FILE: 09 - Reflexions.flac
Size: 25588483 Hash: CD2B5BF862688963CE3E38425532BEFE Accuracy: -m0
Conclusion: CDDA 100%
Signature: 8DD586CF53339C41E57354C88D972AA243B616D5
FILE: 10 - Unue.flac
Size: 4827367 Hash: 288BD8C7603546ACC9F0BD0D0DA1E63A Accuracy: -m0
Conclusion: CDDA 100%
Signature: 61432BD90CFBACC4B10B84567E3E32D719D3C232
FILE: 11 - Souvenirs.flac
Size: 21932463 Hash: DC89C3418811E5346A090366985F4B0E Accuracy: -m0
Conclusion: CDDA 100%
Signature: 1645FA339F40E0835AB9A836BC6E3614B170004B
FILE: 12 - Unue.flac
Size: 3868105 Hash: 664AEF2D339A35BAF2F8C1D05520369D Accuracy: -m0
Conclusion: CDDA 99%
Signature: 24E157AAFD57B0170119C214C6E15198B84F3D35
FILE: 13 - Apocalypse.flac
Size: 21708084 Hash: ABF4D5DF235032994881BE2CD5A72714 Accuracy: -m0
Conclusion: CDDA 99%
Signature: 98DE237607D20423893B3BEBB08FE5BBE2B85E5B
FILE: 14 - Au commencement.flac
Size: 33479871 Hash: 2C69B67DB51A86DC35CC8F3EC4B6AAD4 Accuracy: -m0
Conclusion: CDDA 100%
Signature: 40985449B9CB58760ABC46ADC04785A8F43C5453

Yom's previous CD was titled "New King of Klezmer Clarinet", but here he reaches out to the four corners of the earth with a series of exhilarating duets -- unclassifiable, colourful, meditative, uplifting and above all truly worldwide music.© discovery-records.com
Примечание: в именах файлов заменены диакритические символы на обычные, теги не редактировались, сделал дополнительно файл .CUE для записи Audio-CD в EAC (чтобы названия корректно воспринимались после конвертации .flac в .wav), тут в теме привёл оригинальный треклист (а в каталог альбома вложил .doc с французским списком композиций).
P.S. не стал делать раздачу в подразделе Klezmer и Еврейский фольклор (lossy и lossless), с одной стороны, чтобы этот альбом послушали как можно больше людей, а с другой стороны и потому, что музыка здесь более относится к собственно импровизационному европейскому джазу с "лёгким" налётом world music
данный альбом в mp3-формате ->
(World Fusion, Modern Creative, Klezmer Jazz) Yom [Guillaume Humrey] - Unue (Unué) - 2009, MP3, 320 kbps
19:01
276
Нет комментариев. Ваш будет первым!