Вы используете незарегистрированную версию компонента "Вкладки"!

Поиск

(Modern Jazz, Etho Jazz) Rudresh Mahanthappa - Mother Tongue - 2004, FLAC (tracks+.cue), lossless

(Modern Jazz, Etho Jazz) Rudresh Mahanthappa - Mother Tongue - 2004, FLAC (tracks+.cue), lossless
Треклист:
Rudresh Mahanthappa - Mother Tongue
Жанр: Modern Jazz, Etho Jazz
Страна-производитель диска: USA
Год издания диска: 2004
Издатель (лейбл): PI Recordings
Номер по каталогу: Pi 14
Аудиокодек: FLAC (*.flac)
Тип рипа: tracks+.cue
Битрейт аудио: lossless
Продолжительность: 1:02:23
Источник (релизер): собственный рип с оригинального диска.
Наличие сканов в содержимом раздачи: да
Треклист:
01. The Preserver 5:53
02. English 4:53
03. Kannada 6:48
04. Gujarati 5:25
05. Telugu 6:41
06. Circus 7:50
07. Konkani 2:45
08. Tamil 5:36
09. Malayalam 5:52
10. Point of View 1:50
11. Change of Perspective 8:50
 
Лог создания рипа
Exact Audio Copy V1.0 beta 2 from 29. April 2011
EAC extraction logfile from 31. October 2011, 18:18
Rudresh Mahanthappa / Mother Tongue
Used drive : TSSTcorpCDDVDW SH-S222A Adapter: 1 ID: 0
Read mode : Secure
Utilize accurate stream : Yes
Defeat audio cache : Yes
Make use of C2 pointers : No
Read offset correction : 6
Overread into Lead-In and Lead-Out : No
Fill up missing offset samples with silence : Yes
Delete leading and trailing silent blocks : No
Null samples used in CRC calculations : Yes
Used interface : Native Win32 interface for Win NT & 2000
Gap handling : Appended to previous track
Used output format : User Defined Encoder
Selected bitrate : 896 kBit/s
Quality : High
Add ID3 tag : No
Command line compressor : C:\Tool\CD\EAC10\FLAC\FLAC.EXE
Additional command line options : -6 -V -T "ARTIST=%artist%" -T "TITLE=%title%" -T "ALBUM=%albumtitle%" -T "DATE=%year%" -T "TRACKNUMBER=%tracknr%" -T "GENRE=%genre%" -T "COMMENT=%comment%" -T "BAND=%albuminterpret%" -T "COMPOSER=%composer%" %haslyrics%--ta
TOC of the extracted CD
Track | Start | Length | Start sector | End sector
---------------------------------------------------------
1 | 0:00.00 | 5:53.24 | 0 | 26498
2 | 5:53.24 | 4:53.56 | 26499 | 48529
3 | 10:47.05 | 6:48.28 | 48530 | 79157
4 | 17:35.33 | 5:25.49 | 79158 | 103581
5 | 23:01.07 | 6:41.52 | 103582 | 133708
6 | 29:42.59 | 7:50.58 | 133709 | 169016
7 | 37:33.42 | 2:45.58 | 169017 | 181449
8 | 40:19.25 | 5:36.60 | 181450 | 206709
9 | 45:56.10 | 5:52.58 | 206710 | 233167
10 | 51:48.68 | 1:50.10 | 233168 | 241427
11 | 53:39.03 | 8:50.22 | 241428 | 281199
Track 1
Filename C:\! UPLOAD\Rudresh Mahanthappa - Mother Tongue (2004) [FLAC] {Pi}\01 - The Preserver.wav
Pre-gap length 0:00:02.00
Peak level 98.8 %
Extraction speed 3.4 X
Track quality 100.0 %
Test CRC 7EB3231E
Copy CRC 7EB3231E
Cannot be verified as accurate (confidence 3) [C3A4A73A], AccurateRip returned [27FA7863] (AR v2)
Copy OK
Track 2
Filename C:\! UPLOAD\Rudresh Mahanthappa - Mother Tongue (2004) [FLAC] {Pi}\02 - English.wav
Peak level 98.8 %
Extraction speed 3.4 X
Track quality 100.0 %
Test CRC DF52AB05
Copy CRC DF52AB05
Cannot be verified as accurate (confidence 3) [EBDE530B], AccurateRip returned [B39AEE6C] (AR v2)
Copy OK
Track 3
Filename C:\! UPLOAD\Rudresh Mahanthappa - Mother Tongue (2004) [FLAC] {Pi}\03 - Kannada.wav
Pre-gap length 0:00:02.00
Peak level 98.8 %
Extraction speed 2.9 X
Track quality 99.9 %
Test CRC B375DCC9
Copy CRC B375DCC9
Cannot be verified as accurate (confidence 3) [69357D64], AccurateRip returned [493B5467] (AR v2)
Copy OK
Track 4
Filename C:\! UPLOAD\Rudresh Mahanthappa - Mother Tongue (2004) [FLAC] {Pi}\04 - Gujarati.wav
Pre-gap length 0:00:02.00
Peak level 98.8 %
Extraction speed 3.3 X
Track quality 100.0 %
Test CRC 303C06AB
Copy CRC 303C06AB
Cannot be verified as accurate (confidence 3) [6D5CDA5D], AccurateRip returned [32F27353] (AR v2)
Copy OK
Track 5
Filename C:\! UPLOAD\Rudresh Mahanthappa - Mother Tongue (2004) [FLAC] {Pi}\05 - Telugu.wav
Pre-gap length 0:00:02.00
Peak level 98.8 %
Extraction speed 3.2 X
Track quality 99.9 %
Test CRC 75B27A51
Copy CRC 75B27A51
Cannot be verified as accurate (confidence 3) [6156F691], AccurateRip returned [A1097AEB] (AR v2)
Copy OK
Track 6
Filename C:\! UPLOAD\Rudresh Mahanthappa - Mother Tongue (2004) [FLAC] {Pi}\06 - Circus.wav
Pre-gap length 0:00:02.00
Peak level 98.9 %
Extraction speed 3.3 X
Track quality 99.9 %
Test CRC 5581CA62
Copy CRC 5581CA62
Cannot be verified as accurate (confidence 2) [6304C3F1], AccurateRip returned [755E6594] (AR v2)
Copy OK
Track 7
Filename C:\! UPLOAD\Rudresh Mahanthappa - Mother Tongue (2004) [FLAC] {Pi}\07 - Konkani.wav
Pre-gap length 0:00:02.00
Peak level 98.9 %
Extraction speed 3.1 X
Track quality 100.0 %
Test CRC 8DA962EC
Copy CRC 8DA962EC
Cannot be verified as accurate (confidence 2) [4685AC1C], AccurateRip returned [417A8832] (AR v2)
Copy OK
Track 8
Filename C:\! UPLOAD\Rudresh Mahanthappa - Mother Tongue (2004) [FLAC] {Pi}\08 - Tamil.wav
Pre-gap length 0:00:01.46
Peak level 98.9 %
Extraction speed 3.5 X
Track quality 100.0 %
Test CRC 5EEC66E2
Copy CRC 5EEC66E2
Cannot be verified as accurate (confidence 2) [7C65395E], AccurateRip returned [2BB569FA] (AR v2)
Copy OK
Track 9
Filename C:\! UPLOAD\Rudresh Mahanthappa - Mother Tongue (2004) [FLAC] {Pi}\09 - Malayalam.wav
Pre-gap length 0:00:02.00
Peak level 98.9 %
Extraction speed 3.5 X
Track quality 100.0 %
Test CRC CE0ECAFD
Copy CRC CE0ECAFD
Cannot be verified as accurate (confidence 3) [D36EF07B], AccurateRip returned [300F1F7C] (AR v2)
Copy OK
Track 10
Filename C:\! UPLOAD\Rudresh Mahanthappa - Mother Tongue (2004) [FLAC] {Pi}\10 - Point of View.wav
Pre-gap length 0:00:02.40
Peak level 51.7 %
Extraction speed 2.9 X
Track quality 100.0 %
Test CRC ED43676B
Copy CRC ED43676B
Cannot be verified as accurate (confidence 3) [B641D66E], AccurateRip returned [9C4A5139] (AR v2)
Copy OK
Track 11
Filename C:\! UPLOAD\Rudresh Mahanthappa - Mother Tongue (2004) [FLAC] {Pi}\11 - Change of Perspective.wav
Peak level 98.8 %
Extraction speed 3.5 X
Track quality 100.0 %
Test CRC 460D95A6
Copy CRC 460D95A6
Cannot be verified as accurate (confidence 2) [C7A53502], AccurateRip returned [4E65C99B] (AR v2)
Copy OK
No tracks could be verified as accurate
You may have a different pressing from the one(s) in the database
No errors occurred
End of status report
---- CUETools DB Plugin V2.1.2
[CTDB TOCID: DcCn8d4ULyITh2p8AqvnbmxitOA-] disk not present in database, Submit result: DcCn8d4ULyITh2p8AqvnbmxitOA- has been uploaded
==== Log checksum 6B7EE2EA8EDCDB5961AA21FC0AB733A558054F8E2637E1336537ED3F9F94D43D ====
 
Содержание индексной карты (.CUE)
REM GENRE Jazz
REM DATE 2004
REM DISCID 8C0EA50B
REM COMMENT "ExactAudioCopy v1.0b2"
PERFORMER "Rudresh Mahanthappa"
TITLE "Mother Tongue"
FILE "01 - The Preserver.wav" WAVE
TRACK 01 AUDIO
TITLE "The Preserver"
PERFORMER "Rudresh Mahanthappa"
FLAGS DCP
INDEX 01 00:00:00
FILE "02 - English.wav" WAVE
TRACK 02 AUDIO
TITLE "English"
PERFORMER "Rudresh Mahanthappa"
FLAGS DCP
INDEX 01 00:00:00
TRACK 03 AUDIO
TITLE "Kannada"
PERFORMER "Rudresh Mahanthappa"
FLAGS DCP
INDEX 00 04:51:56
FILE "03 - Kannada.wav" WAVE
INDEX 01 00:00:00
TRACK 04 AUDIO
TITLE "Gujarati"
PERFORMER "Rudresh Mahanthappa"
FLAGS DCP
INDEX 00 06:46:28
FILE "04 - Gujarati.wav" WAVE
INDEX 01 00:00:00
TRACK 05 AUDIO
TITLE "Telugu"
PERFORMER "Rudresh Mahanthappa"
FLAGS DCP
INDEX 00 05:23:49
FILE "05 - Telugu.wav" WAVE
INDEX 01 00:00:00
TRACK 06 AUDIO
TITLE "Circus"
PERFORMER "Rudresh Mahanthappa"
FLAGS DCP
INDEX 00 06:39:52
FILE "06 - Circus.wav" WAVE
INDEX 01 00:00:00
TRACK 07 AUDIO
TITLE "Konkani"
PERFORMER "Rudresh Mahanthappa"
FLAGS DCP
INDEX 00 07:48:58
FILE "07 - Konkani.wav" WAVE
INDEX 01 00:00:00
TRACK 08 AUDIO
TITLE "Tamil"
PERFORMER "Rudresh Mahanthappa"
FLAGS DCP
INDEX 00 02:44:12
FILE "08 - Tamil.wav" WAVE
INDEX 01 00:00:00
TRACK 09 AUDIO
TITLE "Malayalam"
PERFORMER "Rudresh Mahanthappa"
FLAGS DCP
INDEX 00 05:34:60
FILE "09 - Malayalam.wav" WAVE
INDEX 01 00:00:00
TRACK 10 AUDIO
TITLE "Point of View"
PERFORMER "Rudresh Mahanthappa"
FLAGS DCP
INDEX 00 05:50:18
FILE "10 - Point of View.wav" WAVE
INDEX 01 00:00:00
FILE "11 - Change of Perspective.wav" WAVE
TRACK 11 AUDIO
TITLE "Change of Perspective"
PERFORMER "Rudresh Mahanthappa"
FLAGS DCP
INDEX 01 00:00:00
Доп. информация:
Recorded June 15th, 2004 at Systems Two, Brooklyn, NY
 
Об альбоме (сборнике)
Mother Tongue is Rudresh’s musical attempt to dispel the mistaken notion that India, with its multiple cultures, religions and hundreds of spoken languages and dialects, is one homogenous culture. In response to having been repeatedly asked: “Do you speak Indian?” or “Do you speak Hindu?” Rudresh has created compositions that are directly based on melodic transcriptions of various Indian-Americans’ indignant responses in their native Indian tongues to these questions. Rudresh, Vijay Iyer (piano), Francois Moutin (bass), and Elliot Humberto Kavee (drums), interpret and reconfigure seven languages of India through their own musical language. The astounding results make up the core of this CD.
When Indian-American altoist Rudresh Mahanthappa was growing up outside of his family homeland, he was frequently asked "Do you speak Indian?" or "Do you speak Hindu?" The questioners were apparently unaware that India isn't a mono or bilinguistic country and that its landscape includes seven languages. His eventual response to this was Mother Tongue , a CD featuring songs which are based on musical transcriptions of Indian-Americans answering that question, most of which are entitled for the language in which they respond, interpreted nimbly by a fine quartet featuring Mahanthappa, pianist Vijay Iyer, bassist François Moutin and drummer Elliot Humberto Kavee.
There's prologue, though, before the questions are answered. "The Preserver" is a pulsating burner in the vein of late-period Coltrane, with Mahanthappa supplying frentic raga-based riffs. "English" is a tune where general harmony transcends the gentle discord expressed through non-linear but well-coordinated playing. "Kannada" slows down the pace a bit, with Iyer following Mahanthappa's brooding, lyrical ideas and using them to form his own statement.
 
Состав
Rudresh Mahanthappa - alto saxophone
Vijay Iyer - piano
François Moutin - bass
Elliot Humberto Kavee - drums
По всем вопросам пишите личное сообщение пользователю M0p94ok.
18:42
215
Нет комментариев. Ваш будет первым!