Вы используете незарегистрированную версию компонента "Вкладки"!

Поиск

(Free Improvisation / Contemporary Jazz / Household Records) Petter Wettre / Dave Liebman (Ingebrigt H. Flaten, Jarle Vespestad) - Tour de Force - 2004, FLAC (tracks+.cue), lossless

(Free Improvisation / Contemporary Jazz / Household Records) Petter Wettre / Dave Liebman (Ingebrigt H. Flaten, Jarle Vespestad) - Tour de Force - 2004, FLAC (tracks+.cue), lossless
Треклист:
Petter Wettre / Dave Liebman - Tour de Force
Жанр: Free Improvisation / Contemporary Jazz
Страна-производитель диска: Norway
Год издания диска: 2004
Издатель (лейбл): Household Records
Номер по каталогу: DAA003
Аудиокодек: FLAC (*.flac)
Тип рипа: tracks+.cue
Битрейт аудио: lossless
Продолжительность: 01:00:57
Источник (релизер): what.cd / спасибо zopatista
Наличие сканов в содержимом раздачи: нет
Треклист:
1. Yeah, That's Right (Petter Wettre) (12:46)
2. Vibebuster (David Liebman) (6:27)
3. Vonetta (Wayne Shorter) (4:17)
4. Area 51 (Petter Wettre) (14:02)
5. Renewal (David Liebman) (10:51)
6. Go Baby (Petter Wettre) (4:45)
7. The Trio (Petter Wettre) (6:22)
8. Sweet on You (Petter Wettre) (1:27)
Доп. информация:
Musicians:
Petter Wettre - soprano saxophone, tenor saxophone
Dave Liebman - soprano saxophone, percussion
Ingebrigt H. Flaten - bass, vocals
Jarle Vespestad - drums
Recorded live at Hamar Jazzklubb Sept 17th 2000, except "Vonetta" recorded Sept. 15th at Sinus Jazzklub, Bodø
© 2004 Household Records
Petter Wettre / Dave Liebman - Tour de Force discogs.com
Petter Wettre Official Site
Dave Liebman Official Site
 
... photo ...

 
Лог создания рипа
X Lossless Decoder version 20101212 (126.2)
XLD extraction logfile from 2010-12-13 19:49:26 +0100
Petter Wettre & Dave Liebman / Tour de Force
Used drive : HL-DT-ST DVDRW GS21N (revision SA18)
Ripper mode : CDParanoia III 10.2
Disable audio cache : OK for the drive with a cache less than 2750KiB
Make use of C2 pointers : NO
Read offset correction : 667
Max retry count : 100
Gap status : Analyzed, Appended
TOC of the extracted CD
Track | Start | Length | Start sector | End sector
---------------------------------------------------------
1 | 00:00:00 | 12:46:09 | 0 | 57458
2 | 12:46:09 | 06:27:37 | 57459 | 86520
3 | 19:13:46 | 04:17:31 | 86521 | 105826
4 | 23:31:02 | 14:01:47 | 105827 | 168948
5 | 37:32:49 | 10:50:39 | 168949 | 217737
6 | 48:23:13 | 04:45:18 | 217738 | 239130
7 | 53:08:31 | 06:22:22 | 239131 | 267802
8 | 59:30:53 | 01:26:72 | 267803 | 274324
AccurateRip Summary
Disc not found in AccurateRip DB.
All Tracks
Album gain : -4.26 dB
Peak : 0.956451
Statistics
Read error : 0
Skipped (treated as error) : 0
Edge jitter error (maybe fixed) : 0
Atom jitter error (maybe fixed) : 1
Drift error (maybe fixed) : 0
Dropped bytes error (maybe fixed) : 0
Duplicated bytes error (maybe fixed) : 0
Track 01
Filename : /Unsorted MP3/00 In Progress/Petter Wettre & Dave Liebman - 2004 - Tour de Force/01 - Yeah, That's Right.flac
Pre-gap length : 00:02:00
Track gain : -4.21 dB
Peak : 0.956390
CRC32 hash (test run) : BD69C109
CRC32 hash : BD69C109
CRC32 hash (skip zero) : 4824F1C6
AccurateRip signature : 1CC16E91
->Track not present in AccurateRip database.
Statistics
Read error : 0
Skipped (treated as error) : 0
Edge jitter error (maybe fixed) : 0
Atom jitter error (maybe fixed) : 0
Drift error (maybe fixed) : 0
Dropped bytes error (maybe fixed) : 0
Duplicated bytes error (maybe fixed) : 0
Inconsistency in error sectors : 0
Track 02
Filename : /Unsorted MP3/00 In Progress/Petter Wettre & Dave Liebman - 2004 - Tour de Force/02 - Vibebuster.flac
Track gain : -3.85 dB
Peak : 0.956451
CRC32 hash (test run) : F7918185
CRC32 hash : F7918185
CRC32 hash (skip zero) : 0F519D0D
AccurateRip signature : 43472E77
->Track not present in AccurateRip database.
Statistics
Read error : 0
Skipped (treated as error) : 0
Edge jitter error (maybe fixed) : 0
Atom jitter error (maybe fixed) : 0
Drift error (maybe fixed) : 0
Dropped bytes error (maybe fixed) : 0
Duplicated bytes error (maybe fixed) : 0
Inconsistency in error sectors : 0
Track 03
Filename : /Unsorted MP3/00 In Progress/Petter Wettre & Dave Liebman - 2004 - Tour de Force/03 - Vonetta.flac
Track gain : -4.41 dB
Peak : 0.956299
CRC32 hash (test run) : 6B61B93C
CRC32 hash : 6B61B93C
CRC32 hash (skip zero) : C9877A0D
AccurateRip signature : 11380EAB
->Track not present in AccurateRip database.
Statistics
Read error : 0
Skipped (treated as error) : 0
Edge jitter error (maybe fixed) : 0
Atom jitter error (maybe fixed) : 0
Drift error (maybe fixed) : 0
Dropped bytes error (maybe fixed) : 0
Duplicated bytes error (maybe fixed) : 0
Inconsistency in error sectors : 0
Track 04
Filename : /Unsorted MP3/00 In Progress/Petter Wettre & Dave Liebman - 2004 - Tour de Force/04 - Area 51.flac
Track gain : -4.70 dB
Peak : 0.956451
CRC32 hash (test run) : D45AC36B
CRC32 hash : D45AC36B
CRC32 hash (skip zero) : FBF633C9
AccurateRip signature : D7F4DEA8
->Track not present in AccurateRip database.
Statistics
Read error : 0
Skipped (treated as error) : 0
Edge jitter error (maybe fixed) : 0
Atom jitter error (maybe fixed) : 0
Drift error (maybe fixed) : 0
Dropped bytes error (maybe fixed) : 0
Duplicated bytes error (maybe fixed) : 0
Inconsistency in error sectors : 0
Track 05
Filename : /Unsorted MP3/00 In Progress/Petter Wettre & Dave Liebman - 2004 - Tour de Force/05 - Renewal.flac
Track gain : -1.13 dB
Peak : 0.956299
CRC32 hash (test run) : E6585534
CRC32 hash : E6585534
CRC32 hash (skip zero) : 4B37305B
AccurateRip signature : 7FEAB5A5
->Track not present in AccurateRip database.
Statistics
Read error : 0
Skipped (treated as error) : 0
Edge jitter error (maybe fixed) : 0
Atom jitter error (maybe fixed) : 0
Drift error (maybe fixed) : 0
Dropped bytes error (maybe fixed) : 0
Duplicated bytes error (maybe fixed) : 0
Inconsistency in error sectors : 0
Track 06
Filename : /Unsorted MP3/00 In Progress/Petter Wettre & Dave Liebman - 2004 - Tour de Force/06 - Go Baby.flac
Track gain : -3.34 dB
Peak : 0.956360
CRC32 hash (test run) : 5C367102
CRC32 hash : 5C367102
CRC32 hash (skip zero) : 8478E657
AccurateRip signature : CB13EA15
->Track not present in AccurateRip database.
Statistics
Read error : 0
Skipped (treated as error) : 0
Edge jitter error (maybe fixed) : 0
Atom jitter error (maybe fixed) : 1
Drift error (maybe fixed) : 0
Dropped bytes error (maybe fixed) : 0
Duplicated bytes error (maybe fixed) : 0
Inconsistency in error sectors : 0
Track 07
Filename : /Unsorted MP3/00 In Progress/Petter Wettre & Dave Liebman - 2004 - Tour de Force/07 - The Trio.flac
Track gain : -5.59 dB
Peak : 0.956360
CRC32 hash (test run) : 9691718B
CRC32 hash : 9691718B
CRC32 hash (skip zero) : B6B08F18
AccurateRip signature : 53648827
->Track not present in AccurateRip database.
Statistics
Read error : 0
Skipped (treated as error) : 0
Edge jitter error (maybe fixed) : 0
Atom jitter error (maybe fixed) : 0
Drift error (maybe fixed) : 0
Dropped bytes error (maybe fixed) : 0
Duplicated bytes error (maybe fixed) : 0
Inconsistency in error sectors : 0
Track 08
Filename : /Unsorted MP3/00 In Progress/Petter Wettre & Dave Liebman - 2004 - Tour de Force/08 - Sweet on You.flac
Track gain : 0.70 dB
Peak : 0.676300
CRC32 hash (test run) : FC61CF17
CRC32 hash : FC61CF17
CRC32 hash (skip zero) : 5E776DC2
AccurateRip signature : 519AF2D9
->Track not present in AccurateRip database.
Statistics
Read error : 0
Skipped (treated as error) : 0
Edge jitter error (maybe fixed) : 0
Atom jitter error (maybe fixed) : 0
Drift error (maybe fixed) : 0
Dropped bytes error (maybe fixed) : 0
Duplicated bytes error (maybe fixed) : 0
Inconsistency in error sectors : 0
No errors occurred
End of status report
 
Содержание индексной карты (.CUE)
TITLE "Tour de Force"
PERFORMER "Petter Wettre & Dave Liebman"
REM DATE "2004"
REM DISCID 670E4908
FILE "01 - Yeah, That's Right.wav" WAVE
TRACK 01 AUDIO
TITLE "Yeah, That's Right"
ISRC NODAA0303010
INDEX 01 00:00:00
FILE "02 - Vibebuster.wav" WAVE
TRACK 02 AUDIO
TITLE "Vibebuster"
ISRC NODAA0303020
INDEX 01 00:00:00
FILE "03 - Vonetta.wav" WAVE
TRACK 03 AUDIO
TITLE "Vonetta"
ISRC NODAA0303030
INDEX 01 00:00:00
FILE "04 - Area 51.wav" WAVE
TRACK 04 AUDIO
TITLE "Area 51"
ISRC NODAA0303040
INDEX 01 00:00:00
FILE "05 - Renewal.wav" WAVE
TRACK 05 AUDIO
TITLE "Renewal"
ISRC NODAA0303050
INDEX 01 00:00:00
FILE "06 - Go Baby.wav" WAVE
TRACK 06 AUDIO
TITLE "Go Baby"
ISRC NODAA0303060
INDEX 01 00:00:00
FILE "07 - The Trio.wav" WAVE
TRACK 07 AUDIO
TITLE "The Trio"
ISRC NODAA0303070
INDEX 01 00:00:00
FILE "08 - Sweet on You.wav" WAVE
TRACK 08 AUDIO
TITLE "Sweet on You"
ISRC NODAA0303080
INDEX 01 00:00:00
 
Audiochecker 2.0 beta (build 457)
[pre]AUDIOCHECKER v2.0 beta (build 457) - by Dester - opdester@freemail.hu
~~~~~~~~~~~~~~~~~~~~~~~~~~~~~~~~~~
Started at: вторник, 22. 11. 2011. - 23:00.56
8 files found
1 -===- G:\TORRENTS.ru_Audio CD\#102_Petter Wettre & Dave Liebman - Tour de Force (2004)\Petter Wettre & Dave Liebman - Tour de Force (2004)\01 - Yeah, That's Right.flac
Extracted successfully
Conclusion: this track is CDDA with probability 100%
Tempfile successfully deleted.
2 -===- G:\TORRENTS.ru_Audio CD\#102_Petter Wettre & Dave Liebman - Tour de Force (2004)\Petter Wettre & Dave Liebman - Tour de Force (2004)\02 - Vibebuster.flac
Extracted successfully
Conclusion: this track is CDDA with probability 100%
Tempfile successfully deleted.
3 -===- G:\TORRENTS.ru_Audio CD\#102_Petter Wettre & Dave Liebman - Tour de Force (2004)\Petter Wettre & Dave Liebman - Tour de Force (2004)\03 - Vonetta.flac
Extracted successfully
Conclusion: this track is CDDA with probability 100%
Tempfile successfully deleted.
4 -===- G:\TORRENTS.ru_Audio CD\#102_Petter Wettre & Dave Liebman - Tour de Force (2004)\Petter Wettre & Dave Liebman - Tour de Force (2004)\04 - Area 51.flac
Extracted successfully
Conclusion: this track is CDDA with probability 99%
Tempfile successfully deleted.
5 -===- G:\TORRENTS.ru_Audio CD\#102_Petter Wettre & Dave Liebman - Tour de Force (2004)\Petter Wettre & Dave Liebman - Tour de Force (2004)\05 - Renewal.flac
Extracted successfully
Conclusion: this track is CDDA with probability 100%
Tempfile successfully deleted.
6 -===- G:\TORRENTS.ru_Audio CD\#102_Petter Wettre & Dave Liebman - Tour de Force (2004)\Petter Wettre & Dave Liebman - Tour de Force (2004)\06 - Go Baby.flac
Extracted successfully
Conclusion: this track is CDDA with probability 100%
Tempfile successfully deleted.
7 -===- G:\TORRENTS.ru_Audio CD\#102_Petter Wettre & Dave Liebman - Tour de Force (2004)\Petter Wettre & Dave Liebman - Tour de Force (2004)\07 - The Trio.flac
Extracted successfully
Conclusion: this track is CDDA with probability 99%
Tempfile successfully deleted.
8 -===- G:\TORRENTS.ru_Audio CD\#102_Petter Wettre & Dave Liebman - Tour de Force (2004)\Petter Wettre & Dave Liebman - Tour de Force (2004)\08 - Sweet on You.flac
Extracted successfully
Conclusion: this track is CDDA with probability 99%
Tempfile successfully deleted.
Finished at: вторник, 22. 11. 2011. - 23:07.36 (operation time: 0:06.40)
Смотри также:
2007 Petter Wettre - Fountain of Youth readab... релизы с участием DAVE LIEBMAN на трекере ...
Any questions -> support@pro-jazz.com. По всем вопросам пишите -> support@pro-jazz.com
18:43
211
Нет комментариев. Ваш будет первым!