Вы используете незарегистрированную версию компонента "Вкладки"!

Поиск

(Free Jazz) Peter Brotzmann, William Parker, Hamid Drake - Never Too Late But Always Too Early. Dedicated to Peter Kowald. [2 cd] - 2003, FLAC (image+.cue), lossless

(Free Jazz) Peter Brotzmann, William Parker, Hamid Drake - Never Too Late But Always Too Early. Dedicated to Peter Kowald. [2 cd] - 2003, FLAC (image+.cue), lossless
Треклист:
Brotzmann, Parker, Drake / Never Too Late But Always Too Early. Dedicated to Peter Kowald.
Жанр: Free Jazz
Страна-производитель диска: US
Год издания диска: 2003
Издатель (лейбл): Eremite Records
Номер по каталогу: MTE037/038
Аудиокодек: FLAC (*.flac)
Тип рипа: image+.cue
Битрейт аудио: lossless
Продолжительность: 61:56 + 53:01
Источник (релизер): cd
Наличие сканов в содержимом раздачи: нет
Треклист:
Disc 1
Never Run But Go
1 Never Run But Go Pt.1 19:19
2 Never Run But Go Pt.2 4:47
3 Never Run But Go Pt.3 9:31
4 Never Run But Go Pt.4 9:51
5 The Heart And The Bones 18:26
Disc 2
Never Too Late But Always Too Early
1 Never Too Late But Always Too Early Pt.1 16:51
2 Never Too Late But Always Too Early Pt.2 11:02
3 Never Too Late But Always Too Early Pt.3 17:22
4 Halfhearted Beast 7:41
 
Лог создания рипа
Exact Audio Copy V1.0 beta 2 from 29. April 2011
EAC extraction logfile from 23. November 2011, 8:12
Brötzmann, Parker & Drake / Never Too Late But Always Too Early [Disc 01]
Used drive : Optiarc DVD RW AD-7170A Adapter: 0 ID: 0
Read mode : Secure
Utilize accurate stream : Yes
Defeat audio cache : Yes
Make use of C2 pointers : No
Read offset correction : 48
Overread into Lead-In and Lead-Out : No
Fill up missing offset samples with silence : Yes
Delete leading and trailing silent blocks : No
Null samples used in CRC calculations : Yes
Used interface : Native Win32 interface for Win NT & 2000
Used output format : User Defined Encoder
Selected bitrate : 320 kBit/s
Quality : High
Add ID3 tag : No
Command line compressor : C:\Program Files\Exact Audio Copy\Flac\flac.exe
Additional command line options : -V -8 -T "Date=%year%" -T "Genre=%genre%" %source%
TOC of the extracted CD
Track | Start | Length | Start sector | End sector
---------------------------------------------------------
1 | 0:00.00 | 19:20.17 | 0 | 87016
2 | 19:20.17 | 4:47.02 | 87017 | 108543
3 | 24:07.19 | 9:31.47 | 108544 | 151415
4 | 33:38.66 | 9:51.17 | 151416 | 195757
5 | 43:30.08 | 18:26.59 | 195758 | 278766
Range status and errors
Selected range
Filename C:\EAC\Downloads\Brötzmann, Parker & Drake - Never Too Late But Always Too Early [Disc 01].wav
Peak level 90.8 %
Extraction speed 2.0 X
Range quality 100.0 %
Test CRC 8FA37D84
Copy CRC 8FA37D84
Copy OK
No errors occurred
AccurateRip summary
Track 1 accurately ripped (confidence 2) [7EFC8999] (AR v1)
Track 2 accurately ripped (confidence 2) [0EFE3E0A] (AR v1)
Track 3 accurately ripped (confidence 2) [7C2502D5] (AR v1)
Track 4 accurately ripped (confidence 2) [7302B146] (AR v1)
Track 5 accurately ripped (confidence 2) [CC5225A9] (AR v1)
All tracks accurately ripped
End of status report
==== Log checksum BE1F0F4F01C2338B4F5FC07257E068ABDD0FE52B3951F29AD328C37CBFB3643A ====
_____________________________________________________________________________________________________________________
Exact Audio Copy V1.0 beta 2 from 29. April 2011
EAC extraction logfile from 23. November 2011, 9:10
Brötzmann, Parker & Drake / Never Too Late But Always Too Early [Disc 02]
Used drive : Optiarc DVD RW AD-7170A Adapter: 0 ID: 0
Read mode : Secure
Utilize accurate stream : Yes
Defeat audio cache : Yes
Make use of C2 pointers : No
Read offset correction : 48
Overread into Lead-In and Lead-Out : No
Fill up missing offset samples with silence : Yes
Delete leading and trailing silent blocks : No
Null samples used in CRC calculations : Yes
Used interface : Native Win32 interface for Win NT & 2000
Used output format : User Defined Encoder
Selected bitrate : 320 kBit/s
Quality : High
Add ID3 tag : No
Command line compressor : C:\Program Files\Exact Audio Copy\Flac\flac.exe
Additional command line options : -V -8 -T "Date=%year%" -T "Genre=%genre%" %source%
TOC of the extracted CD
Track | Start | Length | Start sector | End sector
---------------------------------------------------------
1 | 0:00.00 | 16:52.56 | 0 | 75955
2 | 16:52.56 | 11:02.18 | 75956 | 125623
3 | 27:54.74 | 17:22.64 | 125624 | 203837
4 | 45:17.63 | 7:43.62 | 203838 | 238624
Range status and errors
Selected range
Filename C:\EAC\Downloads\Brötzmann, Parker & Drake - Never Too Late But Always Too Early [Disc 02].wav
Peak level 89.2 %
Extraction speed 4.5 X
Range quality 99.9 %
Test CRC FBD2E045
Copy CRC FBD2E045
Copy OK
No errors occurred
AccurateRip summary
Track 1 not present in database
Track 2 not present in database
Track 3 not present in database
Track 4 not present in database
None of the tracks are present in the AccurateRip database
End of status report
==== Log checksum 8E9EA6FF81A40249A1E97F4B0D1C8356914CD6701C019B1DFCE3258302F0755A ====
 
Содержание индексной карты (.CUE)
REM GENRE Jazz
REM DATE 2003
REM DISCID 2D0E8405
REM COMMENT "ExactAudioCopy v1.0b2"
PERFORMER "Brotzmann, Parker & Drake"
TITLE "Never Too Late But Always Too Early [Disc 01]"
FILE "Brotzmann, Parker & Drake - Never Too Late But Always Too Early [Disc 01].flac" WAVE
TRACK 01 AUDIO
TITLE "Never Run But Go, Part 1"
PERFORMER "Brotzmann, Parker & Drake"
ISRC USTME0112105
FLAGS DCP
INDEX 01 00:00:00
TRACK 02 AUDIO
TITLE "Never Run But Go, Part 2"
PERFORMER "Brotzmann, Parker & Drake"
ISRC USTME0112106
FLAGS DCP
INDEX 01 19:20:17
TRACK 03 AUDIO
TITLE "Never Run But Go, Part 3"
PERFORMER "Brotzmann, Parker & Drake"
ISRC USTME0112107
FLAGS DCP
INDEX 01 24:07:19
TRACK 04 AUDIO
TITLE "Never Run But Go, Part 4"
PERFORMER "Brotzmann, Parker & Drake"
ISRC USTME0112108
FLAGS DCP
INDEX 01 33:38:66
TRACK 05 AUDIO
TITLE "The Heart and The Bones"
PERFORMER "Brotzmann, Parker & Drake"
ISRC USTME0112109
FLAGS DCP
INDEX 01 43:30:08
_____________________________________________________________________________________________________________________
REM GENRE Jazz
REM DATE 2003
REM DISCID 2F0C6D04
REM COMMENT "ExactAudioCopy v1.0b2"
PERFORMER "Brotzmann, Parker & Drake"
TITLE "Never Too Late But Always Too Early [Disc 02]"
FILE "Brotzmann, Parker & Drake - Never Too Late But Always Too Early [Disc 02].flac" WAVE
TRACK 01 AUDIO
TITLE "Never Too Late But Always Too Early, Part 1"
PERFORMER "Brotzmann, Parker & Drake"
ISRC USTME0112101
FLAGS DCP
INDEX 01 00:00:00
TRACK 02 AUDIO
TITLE "Never Too Late But Always Too Early, Part 2"
PERFORMER "Brotzmann, Parker & Drake"
ISRC USTME0112102
FLAGS DCP
INDEX 01 16:52:56
TRACK 03 AUDIO
TITLE "Never Too Late But Always Too Early, Part 3"
PERFORMER "Brotzmann, Parker & Drake"
ISRC USTME0112103
FLAGS DCP
INDEX 01 27:54:74
TRACK 04 AUDIO
TITLE "Halfhearted Beant"
PERFORMER "Brotzmann, Parker & Drake"
ISRC USTME0112104
FLAGS DCP
INDEX 01 45:17:63
Доп. информация: Recorded 10 April 2001 at Casa del Dopolo, Montreal, Canada.
 
Состав
Double Bass – William Parker
Drums – Hamid Drake
Tenor Saxophone, Tarogato, Clarinet [Alto], Liner Notes – Peter BrotzmannWilliam ParkerHamid Drake
Any questions -> support@pro-jazz.com. По всем вопросам пишите -> support@pro-jazz.com
18:44
180
Нет комментариев. Ваш будет первым!