Поиск

1969 Sonny Simmons - Manhattan Egos {Arhoolie 483}

1969 Sonny Simmons - Manhattan Egos {Arhoolie 483}
Стили:
Издатель (лейбл):
Треклист:

Год издания диска: 1969
Издатель (лейбл): Arhoolie 483
Аудиокодек: FLAC (*.flac)
Тип рипа: tracks+.cue
Битрейт аудио: lossless
Продолжительность: 1`18`47
Источник (релизер):what.cd
Наличие сканов в содержимом раздачи: нет

Треклист:
Title Composer Time
1 Coltrane in Paradise 11:46
2 The Prober 9:28
3 Manhattan Egos 8:22
4 Seven Dances of Salome 7:02
5 Visions Simmons 6:08
6 Beings of Light 13:08
7 Purple Rays 12:36
8 Divine Magnet 3:21
9 The Beauty of Ibis 6:51
 
Лог создания рипа
Exact Audio Copy V1.0 beta 1 from 15. November 2010
EAC extraction logfile from 19. April 2011, 16:32
Sonny Simmons / Manhattan Egos
Used drive  : TSSTcorpCD/DVDW SH-S182D   Adapter: 1  ID: 0
Read mode               : Secure
Utilize accurate stream : Yes
Defeat audio cache      : Yes
Make use of C2 pointers : No
Read offset correction                      : 6
Overread into Lead-In and Lead-Out          : No
Fill up missing offset samples with silence : Yes
Delete leading and trailing silent blocks   : No
Null samples used in CRC calculations       : Yes
Used interface                              : Native Win32 interface for Win NT & 2000
Gap handling                                : Appended to previous track
Used output format              : User Defined Encoder
Selected bitrate                : 128 kBit/s
Quality                         : High
Add ID3 tag                     : No
Command line compressor         : C:\Program Files\Exact Audio Copy\Flac\flac.exe
Additional command line options : -V -8 -T "artist=%a" -T "title=%t" -T "album=%g" -T "date=%y" -T "tracknumber=%n" -T "genre=%m" %s
TOC of the extracted CD
     Track |   Start  |  Length  | Start sector | End sector
    ---------------------------------------------------------
        1  |  0:00.00 | 11:46.63 |         0    |    53012
        2  | 11:46.63 |  9:28.34 |     53013    |    95646
        3  | 21:15.22 |  8:22.40 |     95647    |   133336
        4  | 29:37.62 |  7:02.32 |    133337    |   165018
        5  | 36:40.19 |  6:08.73 |    165019    |   192691
        6  | 42:49.17 | 13:08.25 |    192692    |   251816
        7  | 55:57.42 | 12:36.20 |    251817    |   308536
        8  | 68:33.62 |  3:21.24 |    308537    |   323635
        9  | 71:55.11 |  6:51.62 |    323636    |   354522
Track  1
     Filename F:\EACrips\Sonny Simmons - 1969 - Manhattan Egos\01 - Coltrane in Paradise.wav
     Pre-gap length  0:00:02.00
     Peak level 98.8 %
     Extraction speed 5.8 X
     Track quality 100.0 %
     Test CRC F15F09FF
     Copy CRC F15F09FF
     Track not present in AccurateRip database
     Copy OK
Track  2
     Filename F:\EACrips\Sonny Simmons - 1969 - Manhattan Egos\02 - The Prober.wav
     Pre-gap length  0:00:03.60
     Peak level 98.8 %
     Extraction speed 6.9 X
     Track quality 100.0 %
     Test CRC D47B5B9B
     Copy CRC D47B5B9B
     Track not present in AccurateRip database
     Copy OK
Track  3
     Filename F:\EACrips\Sonny Simmons - 1969 - Manhattan Egos\03 - Manhattan Egos.wav
     Pre-gap length  0:00:03.60
     Peak level 98.8 %
     Extraction speed 7.6 X
     Track quality 100.0 %
     Test CRC B3AB7FEB
     Copy CRC B3AB7FEB
     Track not present in AccurateRip database
     Copy OK
Track  4
     Filename F:\EACrips\Sonny Simmons - 1969 - Manhattan Egos\04 - Seven Dances of Slome.wav
     Pre-gap length  0:00:03.60
     Peak level 98.8 %
     Extraction speed 8.1 X
     Track quality 100.0 %
     Test CRC 69F5D4E7
     Copy CRC 69F5D4E7
     Track not present in AccurateRip database
     Copy OK
Track  5
     Filename F:\EACrips\Sonny Simmons - 1969 - Manhattan Egos\05 - Visions.wav
     Pre-gap length  0:00:03.60
     Peak level 98.8 %
     Extraction speed 8.4 X
     Track quality 100.0 %
     Test CRC BD9E1D77
     Copy CRC BD9E1D77
     Track not present in AccurateRip database
     Copy OK
Track  6
     Filename F:\EACrips\Sonny Simmons - 1969 - Manhattan Egos\06 - Brings of Light.wav
     Pre-gap length  0:00:03.60
     Peak level 98.8 %
     Extraction speed 9.1 X
     Track quality 99.9 %
     Test CRC B9B9743D
     Copy CRC B9B9743D
     Track not present in AccurateRip database
     Copy OK
Track  7
     Filename F:\EACrips\Sonny Simmons - 1969 - Manhattan Egos\07 - Purple Rays.wav
     Pre-gap length  0:00:03.60
     Peak level 98.8 %
     Extraction speed 10.2 X
     Track quality 100.0 %
     Test CRC 47AAE60C
     Copy CRC 47AAE60C
     Track not present in AccurateRip database
     Copy OK
Track  8
     Filename F:\EACrips\Sonny Simmons - 1969 - Manhattan Egos\08 - Divine Magnet.wav
     Pre-gap length  0:00:03.60
     Peak level 57.3 %
     Extraction speed 9.4 X
     Track quality 100.0 %
     Test CRC 6C0138F8
     Copy CRC 6C0138F8
     Track not present in AccurateRip database
     Copy OK
Track  9
     Filename F:\EACrips\Sonny Simmons - 1969 - Manhattan Egos\09 - The Beauty of Ibis.wav
     Pre-gap length  0:00:01.58
     Peak level 98.8 %
     Extraction speed 10.4 X
     Track quality 100.0 %
     Test CRC 230BEF16
     Copy CRC 230BEF16
     Track not present in AccurateRip database
     Copy OK
None of the tracks are present in the AccurateRip database
No errors occurred
End of status report
==== Log checksum 01428EF3549A98CF547B7A5D3B2FE2C4DE87EFA157423BCB688653A48A87041D ====
 
Содержание индексной карты (.CUE)
REM GENRE "Free Jazz"
REM DATE 1969
REM DISCID 7D127609
REM COMMENT "ExactAudioCopy v1.0b1"
FILE "01 - Coltrane in Paradise.wav" WAVE
  TRACK 01 AUDIO
    FLAGS DCP
    INDEX 01 00:00:00
  TRACK 02 AUDIO
    FLAGS DCP
    INDEX 00 11:43:18
FILE "02 - The Prober.wav" WAVE
    INDEX 01 00:00:00
  TRACK 03 AUDIO
    FLAGS DCP
    INDEX 00 09:24:64
FILE "03 - Manhattan Egos.wav" WAVE
    INDEX 01 00:00:00
  TRACK 04 AUDIO
    FLAGS DCP
    INDEX 00 08:18:70
FILE "04 - Seven Dances of Slome.wav" WAVE
    INDEX 01 00:00:00
  TRACK 05 AUDIO
    FLAGS DCP
    INDEX 00 06:58:62
FILE "05 - Visions.wav" WAVE
    INDEX 01 00:00:00
  TRACK 06 AUDIO
    FLAGS DCP
    INDEX 00 06:05:28
FILE "06 - Brings of Light.wav" WAVE
    INDEX 01 00:00:00
  TRACK 07 AUDIO
    FLAGS DCP
    INDEX 00 13:04:55
FILE "07 - Purple Rays.wav" WAVE
    INDEX 01 00:00:00
  TRACK 08 AUDIO
    FLAGS DCP
    INDEX 00 12:32:50
FILE "08 - Divine Magnet.wav" WAVE
    INDEX 01 00:00:00
  TRACK 09 AUDIO
    FLAGS DCP
    INDEX 00 03:19:55
FILE "09 - The Beauty of Ibis.wav" WAVE
    INDEX 01 00:00:00
Состав:
  • Congas – Voodoo Bembe (tracks: B2)
  • Drums – Paul Smith
  • Saxophone [Alto], English Horn – Sonny Simmons
  • Trumpet – Barbara Donald
По всем вопросам пишите личное сообщение пользователю M0p94ok.
18:42
385
Нет комментариев. Ваш будет первым!