Поиск

(Modern Jazz) David Murray Quintet with Ray Anderson Anthony Davis - 1996, FLAC (image+.cue), lossless

(Modern Jazz) David Murray Quintet with Ray Anderson Anthony Davis - 1996, FLAC (image+.cue), lossless
Треклист:
David Murray Quintet with Ray Anderson Anthony Davis
Жанр: (Modern Jazz)
Год выпуска диска: 1996
Производитель диска: Japan (DIW)
Аудио кодек: FLAC
Тип рипа: image+.cue
Битрейт аудио: lossless
Продолжительность: 51:12
Трэклист:
Stompin' At The Savoy
Disguise The Limit
Jay Walking
Andrew
Kiano
Funkalific
Доп. информация:
David Murray: tenor saxophone
Ray Anderson: trombone
Anthony Davis: piano
Kenny Davis: bass
Tommy Campbell: drums
Увидел этот альбом на одном форуме и решил поделиться рипом со СВОЕГО диска.
Моё знакомство с Рэем Андерсеном (да и с Энтони Дэвисом) началось именно с этого альбома.
Ну и как это очень редко происходит - любовь-с-первого-уха.
На мой (нескромный и абсолютно предвзятый) взгляд, этот альбом стал классикой минут этак через пять после выхода в свет.
Трудно представить любителя жанра, который прошёл мимо ЭТОГО.
Почетателям таланта Джима Андерсона (звукорежисёра) как всегда раздолье.
 
eac log
Exact Audio Copy V0.99 prebeta 3 from 28. July 2007
EAC extraction logfile from 9. November 2008, 23:21
david murray quintet ray anderson anthony davis / david murray quintet with ray anderson anthony davis
Used drive : HL-DT-STDVDRAM GSA-4165B Adapter: 1 ID: 0
Read mode : Secure
Utilize accurate stream : Yes
Defeat audio cache : Yes
Make use of C2 pointers : No
Read offset correction : 667
Overread into Lead-In and Lead-Out : No
Fill up missing offset samples with silence : Yes
Delete leading and trailing silent blocks : No
Null samples used in CRC calculations : No
Used interface : Native Win32 interface for Win NT & 2000
Used output format : User Defined Encoder
Selected bitrate : 768 kBit/s
Quality : High
Add ID3 tag : No
Command line compressor : C:\Program Files\Exact Audio Copy\FLAC\FLAC.EXE
Additional command line options : -6 -V -T "ARTIST=%a" -T "TITLE=%t" -T "ALBUM=%g" -T "DATE=%y" -T "TRACKNUMBER=%n" -T "GENRE=%m" -T "COMMENT=%e" %s -o %d
TOC of the extracted CD
Track | Start | Length | Start sector | End sector
---------------------------------------------------------
1 | 0:00.00 | 7:59.11 | 0 | 35935
2 | 7:59.11 | 6:18.64 | 35936 | 64349
3 | 14:18.00 | 5:41.04 | 64350 | 89928
4 | 19:59.04 | 10:23.54 | 89929 | 136707
5 | 30:22.58 | 11:56.05 | 136708 | 190412
6 | 42:18.63 | 8:53.58 | 190413 | 230445
Range status and errors
Selected range
Filename F:\DATA\Music\Torrent\0_My_Music\David Murray Quintet with Ray Anderson Anthony Davis\David Murray Quintet with Ray Anderson Anthony Davis (1996).wav
Peak level 100.0 %
Range quality 99.9 %
Copy CRC 2BB3F87F
Copy OK
No errors occurred
AccurateRip summary
Track 1 not present in database
Track 2 not present in database
Track 3 not present in database
Track 4 not present in database
Track 5 not present in database
Track 6 not present in database
None of the tracks are present in the AccurateRip database
End of status report
Приватный:
Нет (DHT включён)
Размер:
325.68 Мб (341,497,304 байт) » файлов: 5
Участники:
0 раздают, 0 качают (0 участников всего)
Внешние участники:
2 раздают, 1 качают (3 участников всего) [ Обновить ]
No seeders - write a personal message to user M0p94ok. Нет сидеров - пишите личное сообщение пользователю M0p94ok.
05:07
88
Нет комментариев. Ваш будет первым!