Поиск

(jazz) Kaoru Abe - Mort a Credit 1975, FLAC (tracks+.cue), lossless

Треклист:
 
*
 
*

Kaoru Abe - Mort a Credit
Жанр: jazz
Год выпуска:
Формат: FLAC (tracks+.cue)
Битрейт аудио: lossless
Продолжительность: 1:40:14
Источник: ed2k

disc 1

01. Kaoru Abe - Alto Improvisation No.1 (00:26:03)
02. Alto Improvisation No.2 (00:11:21)
03. Kaoru Abe - Alto Improvisation No.3 (00:12:25)
 
log 1
Exact Audio Copy V0.99 prebeta 4 from 23. January 2008
EAC extraction logfile from 26. April 2008, 2:33
Kaoru Abe / Mort a Credit (disc 1)
Used drive : PLEXTOR DVDR PX-760A Adapter: 1 ID: 0
Read mode : Secure
Utilize accurate stream : Yes
Defeat audio cache : Yes
Make use of C2 pointers : No
Read offset correction : 30
Overread into Lead-In and Lead-Out : No
Fill up missing offset samples with silence : Yes
Delete leading and trailing silent blocks : No
Null samples used in CRC calculations : Yes
Used interface : Installed external ASPI interface
Gap handling : Appended to previous track
Used output format : User Defined Encoder
Selected bitrate : 192 kBit/s
Quality : High
Add ID3 tag : No
Command line compressor : G:\Program Files\MEDIA\filters\Flac official\FLAC\flac.exe
Additional command line options : -8 -V -T "ARTIST=%a" -T "TITLE=%t" -T "ALBUM=%g" -T "DATE=%y" -T "TRACKNUMBER=%n" -T "TOTALTRACKS=%x" -T "GENRE=%m" -T "ALBUMARTIST=%v" -T "ALBUM ARTIST=%v" -T "COMMENT=EAC V0.99 prebeta 4, Secure Mode, Test & Copy, Accurat
TOC of the extracted CD
Track | Start | Length | Start sector | End sector
---------------------------------------------------------
1 | 0:00.00 | 26:02.45 | 0 | 117194
2 | 26:02.45 | 11:20.67 | 117195 | 168261
3 | 37:23.37 | 12:24.60 | 168262 | 224121
Track 1
Filename E:\uTORRENT\ups\Kaoru Abe - Mort a Credit (1975) [FLAC]\Disc 1 of 2\01 - Alto Improvisation No.1.wav
Pre-gap length 0:00:02.00
Peak level 100.0 %
Track quality 100.0 %
Test CRC FEB07F19
Copy CRC FEB07F19
Track not present in AccurateRip database
Copy OK
Track 2
Filename E:\uTORRENT\ups\Kaoru Abe - Mort a Credit (1975) [FLAC]\Disc 1 of 2\02 - Alto Improvisation No.2.wav
Pre-gap length 0:00:07.73
Peak level 100.0 %
Track quality 100.0 %
Test CRC AB439320
Copy CRC AB439320
Track not present in AccurateRip database
Copy OK
Track 3
Filename E:\uTORRENT\ups\Kaoru Abe - Mort a Credit (1975) [FLAC]\Disc 1 of 2\03 - Alto Improvisation No.3.wav
Pre-gap length 0:00:06.20
Peak level 80.9 %
Track quality 100.0 %
Test CRC ABD0BF61
Copy CRC ABD0BF61
Track not present in AccurateRip database
Copy OK
None of the tracks are present in the AccurateRip database
No errors occurred
End of status report



disc 2

01. Kaoru Abe - Sopranino Improvisation No.1 (00:06:31)
02. Kaoru Abe - Alto Improvisation No.4 (00:36:47)
03. Kaoru Abe - Sopranino Improvisation No.2 (00:07:01)
 
log 2
Exact Audio Copy V0.99 prebeta 4 from 23. January 2008
EAC extraction logfile from 26. April 2008, 3:08
Kaoru Abe / Mort a Credit (disc 2)
Used drive : PLEXTOR DVDR PX-760A Adapter: 1 ID: 0
Read mode : Secure
Utilize accurate stream : Yes
Defeat audio cache : Yes
Make use of C2 pointers : No
Read offset correction : 30
Overread into Lead-In and Lead-Out : No
Fill up missing offset samples with silence : Yes
Delete leading and trailing silent blocks : No
Null samples used in CRC calculations : Yes
Used interface : Installed external ASPI interface
Gap handling : Appended to previous track
Used output format : User Defined Encoder
Selected bitrate : 192 kBit/s
Quality : High
Add ID3 tag : No
Command line compressor : G:\Program Files\MEDIA\filters\Flac official\FLAC\flac.exe
Additional command line options : -8 -V -T "ARTIST=%a" -T "TITLE=%t" -T "ALBUM=%g" -T "DATE=%y" -T "TRACKNUMBER=%n" -T "TOTALTRACKS=%x" -T "GENRE=%m" -T "ALBUMARTIST=%v" -T "ALBUM ARTIST=%v" -T "COMMENT=EAC V0.99 prebeta 4, Secure Mode, Test & Copy, Accurat
TOC of the extracted CD
Track | Start | Length | Start sector | End sector
---------------------------------------------------------
1 | 0:00.00 | 6:30.45 | 0 | 29294
2 | 6:30.45 | 36:46.45 | 29295 | 194789
3 | 43:17.15 | 7:01.10 | 194790 | 226374
Track 1
Filename E:\uTORRENT\ups\Kaoru Abe - Mort a Credit (1975) [FLAC]\Disc 2 of 2\01 - Sopranino Improvisation No.1.wav
Pre-gap length 0:00:02.00
Peak level 70.7 %
Track quality 100.0 %
Test CRC ED032A77
Copy CRC ED032A77
Track not present in AccurateRip database
Copy OK
Track 2
Filename E:\uTORRENT\ups\Kaoru Abe - Mort a Credit (1975) [FLAC]\Disc 2 of 2\02 - Alto Improvisation No.4.wav
Pre-gap length 0:00:08.45
Peak level 100.0 %
Track quality 100.0 %
Test CRC AC7BF4A3
Copy CRC AC7BF4A3
Track not present in AccurateRip database
Copy OK
Track 3
Filename E:\uTORRENT\ups\Kaoru Abe - Mort a Credit (1975) [FLAC]\Disc 2 of 2\03 - Sopranino Improvisation No.2.wav
Pre-gap length 0:00:06.50
Peak level 99.2 %
Track quality 100.0 %
Test CRC 74937CBF
Copy CRC 74937CBF
Track not present in AccurateRip database
Copy OK
None of the tracks are present in the AccurateRip database
No errors occurred
End of status report

Приватный:
Нет (DHT включён)
Размер:
532.31 Мб (558,169,180 байт) » файлов: 22
Участники:
0 раздают, 0 качают (0 участников всего)
Внешние участники:
2 раздают, 1 качают (3 участников всего) [ Обновить ]
No seeders - write a personal message to user M0p94ok. Нет сидеров - пишите личное сообщение пользователю M0p94ok.
05:08
54
Нет комментариев. Ваш будет первым!