Поиск

(Avant-Garde Jazz, Free Jazz) Alan Shorter - Orgasm 1968, FLAC (tracks+.cue), lossless

Треклист:


Alan Shorter -Orgasm
Жанр: Avant-Garde Jazz, Free Jazz
Год выпуска: 1968
Формат: FLAC (tracks+.cue)
Битрейт аудио: lossless
Продолжительность 49:00
Источник: ed2k
Alan Shorter - flugelhorn. trumpet, tambourine
Gato Barbieri - tenor sax
Charlie Haden - bass
Reggie Johnson - bass
Muhammad Ali - drums
Rashied Ali - drums

tracks

1. Parabola 13:08
2. Joseph 3:09
3. Straits Of Blagellan 6:19
4. Rapids 10:29
5. Outeroids 4:09
6. Orgasm 11:18


 
logfile
Exact Audio Copy V0.99 prebeta 4 from 23. January 2008
EAC extraction logfile from 8. July 2008, 18:21
Alan Shorter / Orgasm
Used drive : _NEC DVD_RW ND-3520A Adapter: 1 ID: 0
Read mode : Secure
Utilize accurate stream : Yes
Defeat audio cache : Yes
Make use of C2 pointers : No
Read offset correction : 48
Overread into Lead-In and Lead-Out : No
Fill up missing offset samples with silence : Yes
Delete leading and trailing silent blocks : No
Null samples used in CRC calculations : Yes
Used interface : Installed external ASPI interface
Gap handling : Appended to previous track
Used output format : User Defined Encoder
Selected bitrate : 1024 kBit/s
Quality : High
Add ID3 tag : No
Command line compressor : C:\Program Files\FLAC\flac.exe
Additional command line options : -8 -V -T "ARTIST=%a" -T "TITLE=%t" -T "ALBUM=%g" -T "DATE=%y" -T "TRACKNUMBER=%n" -T "GENRE=%m" -T "COMMENT=EAC FLAC -8" %s
TOC of the extracted CD
Track | Start | Length | Start sector | End sector
---------------------------------------------------------
1 | 0:00.32 | 13:14.48 | 32 | 59629
2 | 13:15.05 | 3:14.72 | 59630 | 74251
3 | 16:30.02 | 6:23.45 | 74252 | 103021
4 | 22:53.47 | 10:33.45 | 103022 | 150541
5 | 33:27.17 | 4:14.73 | 150542 | 169664
6 | 37:42.15 | 11:18.12 | 169665 | 220526
Track 1
Filename C:\Documents and Settings\David Holmes\Desktop\Alan Shorter - Orgasm (1968) [FLAC]\01 - Parabola.wav
Pre-gap length 0:00:02.42
Peak level 99.5 %
Track quality 99.9 %
Test CRC 2B19F6B6
Copy CRC 2B19F6B6
Track not present in AccurateRip database
Copy OK
Track 2
Filename C:\Documents and Settings\David Holmes\Desktop\Alan Shorter - Orgasm (1968) [FLAC]\02 - Joseph.wav
Pre-gap length 0:00:05.77
Peak level 52.2 %
Track quality 100.0 %
Test CRC B4BCC458
Copy CRC B4BCC458
Track not present in AccurateRip database
Copy OK
Track 3
Filename C:\Documents and Settings\David Holmes\Desktop\Alan Shorter - Orgasm (1968) [FLAC]\03 - Straits of Blagellan.wav
Pre-gap length 0:00:05.49
Peak level 99.9 %
Track quality 100.0 %
Test CRC 7D45CBEF
Copy CRC 7D45CBEF
Track not present in AccurateRip database
Copy OK
Track 4
Filename C:\Documents and Settings\David Holmes\Desktop\Alan Shorter - Orgasm (1968) [FLAC]\04 - Rapids.wav
Pre-gap length 0:00:03.86
Peak level 99.9 %
Track quality 99.9 %
Test CRC DC5CD737
Copy CRC DC5CD737
Track not present in AccurateRip database
Copy OK
Track 5
Filename C:\Documents and Settings\David Holmes\Desktop\Alan Shorter - Orgasm (1968) [FLAC]\05 - Outeroids.wav
Pre-gap length 0:00:04.53
Peak level 99.9 %
Track quality 100.0 %
Test CRC F85DC4AD
Copy CRC F85DC4AD
Track not present in AccurateRip database
Copy OK
Track 6
Filename C:\Documents and Settings\David Holmes\Desktop\Alan Shorter - Orgasm (1968) [FLAC]\06 - Orgasm.wav
Pre-gap length 0:00:05.90
Peak level 71.4 %
Track quality 100.0 %
Test CRC 0F449AA5
Copy CRC 0F449AA5
Track not present in AccurateRip database
Copy OK
None of the tracks are present in the AccurateRip database
No errors occurred
End of status report

другие релизы
Приватный:
Нет (DHT включён)
Размер:
302.60 Мб (317,302,857 байт) » файлов: 11
Участники:
0 раздают, 0 качают (0 участников всего)
Внешние участники:
5 раздают, 2 качают (7 участников всего) [ Обновить ]
No seeders - write a personal message to user M0p94ok. Нет сидеров - пишите личное сообщение пользователю M0p94ok.
05:09
75
Нет комментариев. Ваш будет первым!