Поиск

(jazz, avant.garde, free.jazz) Alexander von Schlippenbach Trio - Gold is where you find it (2008), FLAC (tracks+.cue), lossless

(jazz, avant.garde, free.jazz) Alexander von Schlippenbach Trio - Gold is where you find it (2008), FLAC (tracks+.cue), lossless
Треклист:


Alexander von Schlippenbach Trio
Gold is where you find it
Жанр: jazz, avant.garde, free.jazz
Год выпуска: 2008
Формат: FLAC (tracks+.cue)
Битрейт аудио: lossless
Продолжительность 1:04:13
Источник: ed2k

tracks

1. Z D W A
2. Slightly Flapping
3. Amorpha
4. Gold is where you find it
5. K. sp
6. Monkey's first
7. Lekko
8. Cloudburst
9. Three in one
10. The bells of St.K


 
logfile
EAC extraction logfile from 10. September 2008, 18:05 for CD
Schlippenbach Trio / Gold Is Where You Find It
Used drive : HL-DT-STDVDRAM GSA-H10N Adapter: 0 ID: 0
Read mode : Secure with NO C2, accurate stream, disable cache
Read offset correction : 667
Overread into Lead-In and Lead-Out : No
Used output format : C:\Program Files\FLAC\flac.exe (User Defined Encoder)
128 kBit/s
Additional command line options : -8 -V -T "ARTIST=%a" -T "TITLE=%t" -T "ALBUM=%g" -T "DATE=%y" -T "TRACKNUMBER=%n" -T "GENRE=%m" -T "COMMENT=EAC FLAC -8" %s
Other options :
Fill up missing offset samples with silence : Yes
Delete leading and trailing silent blocks : No
Native Win32 interface for Win NT & 2000
Track 1
Filename D:\Torrents\Alexander von Schlippenbach Trio - Gold is where you find it (2008) [FLAC]\01 - Z D W A.wav
Pre-gap length 0:00:02.00
Peak level 100.0 %
Track quality 100.0 %
Test CRC EB481832
Copy CRC EB481832
Copy OK
Track 2
Filename D:\Torrents\Alexander von Schlippenbach Trio - Gold is where you find it (2008) [FLAC]\02 - Slightly Flapping.wav
Pre-gap length 0:00:02.00
Peak level 44.1 %
Track quality 99.9 %
Test CRC 2B675816
Copy CRC 2B675816
Copy OK
Track 3
Filename D:\Torrents\Alexander von Schlippenbach Trio - Gold is where you find it (2008) [FLAC]\03 - Amorpha.wav
Pre-gap length 0:00:02.00
Peak level 87.4 %
Track quality 99.9 %
Test CRC A40F6959
Copy CRC A40F6959
Copy OK
Track 4
Filename D:\Torrents\Alexander von Schlippenbach Trio - Gold is where you find it (2008) [FLAC]\04 - Gold Is Where You Find It.wav
Pre-gap length 0:00:02.00
Peak level 87.6 %
Track quality 99.9 %
Test CRC 7BB8FBDD
Copy CRC 7BB8FBDD
Copy OK
Track 5
Filename D:\Torrents\Alexander von Schlippenbach Trio - Gold is where you find it (2008) [FLAC]\05 - K.SP.wav
Pre-gap length 0:00:02.00
Peak level 75.2 %
Track quality 100.0 %
Test CRC 176A6CF9
Copy CRC 176A6CF9
Copy OK
Track 6
Filename D:\Torrents\Alexander von Schlippenbach Trio - Gold is where you find it (2008) [FLAC]\06 - Monkey s Fist.wav
Pre-gap length 0:00:02.00
Peak level 97.0 %
Track quality 100.0 %
Test CRC 3755B1A1
Copy CRC 3755B1A1
Copy OK
Track 7
Filename D:\Torrents\Alexander von Schlippenbach Trio - Gold is where you find it (2008) [FLAC]\07 - Lekko.wav
Pre-gap length 0:00:02.00
Peak level 58.5 %
Track quality 100.0 %
Test CRC FA9DAF73
Copy CRC FA9DAF73
Copy OK
Track 8
Filename D:\Torrents\Alexander von Schlippenbach Trio - Gold is where you find it (2008) [FLAC]\08 - Cloudburst.wav
Pre-gap length 0:00:02.00
Peak level 94.6 %
Track quality 100.0 %
Test CRC 7A0AB7AD
Copy CRC 7A0AB7AD
Copy OK
Track 9
Filename D:\Torrents\Alexander von Schlippenbach Trio - Gold is where you find it (2008) [FLAC]\09 - Three In One.wav
Pre-gap length 0:00:02.00
Peak level 100.0 %
Track quality 100.0 %
Test CRC 370FD7C7
Copy CRC 370FD7C7
Copy OK
Track 10
Filename D:\Torrents\Alexander von Schlippenbach Trio - Gold is where you find it (2008) [FLAC]\10 - The Bells of St K.wav
Pre-gap length 0:00:02.00
Peak level 100.0 %
Track quality 100.0 %
Test CRC 19BBB79B
Copy CRC 19BBB79B
Copy OK
No errors occured
End of status report

другие релизы
Приватный:
Нет (DHT включён)
Размер:
337.44 Мб (353,827,040 байт) » файлов: 20
Участники:
0 раздают, 0 качают (0 участников всего)
Внешние участники:
2 раздают, 1 качают (3 участников всего) [ Обновить ]
No seeders - write a personal message to user M0p94ok. Нет сидеров - пишите личное сообщение пользователю M0p94ok.
05:09
105
Нет комментариев. Ваш будет первым!