Поиск

(avantgarde) Happy Apple-Happy Apple Back On Top - 2007, FLAC (tracks)

(avantgarde) Happy Apple-Happy Apple Back On Top - 2007, FLAC (tracks)
Треклист:
Happy Apple-Happy Apple Back On Top
Жанр: avantgarde
Год выпуска диска: 2007
Производитель диска: USA
Аудио кодек: APE
Тип рипа: image+.cue
Битрейт аудио:lossless
Продолжительность:67'56
Трэклист:
01-The new Bison
02-Very Small Rock
03-1996 a.d.
04-Rise! Mark Anthony
05-Calgon for Hetfield
06-Lefse Los Cubanos
07-He's O.K.
08-Brown Lights
09-Hence the Turtleneck
10-Most Popular to Succeed
11-Density in Dan's Fan City
Доп. информация:
Eric Fratzke-fender bass
Dave King-drums
Michael Lewis-tenor, alto and soprano saxophones, keyboards
 
скрытый текст
Exact Audio Copy V0.99 prebeta 4 from 23. January 2008
Отчёт EAC об извлечении, выполненном 15. ноября 2008, 22:57
Happy Apple / Happy Apple Back On Top
Дисковод: Optiarc DVD RW AD-7173A Adapter: 1 ID: 0
Режим чтения : Достоверность
Использование точного потока : Да
Отключение кэша аудио : Да
Использование указателей C2 : Нет
Коррекция смещения при чтении : 48
Способность читать области Lead-in и Lead-out : Нет
Заполнение пропущенных сэмплов тишиной : Да
Удаление блоков с тишиной в начале и конце : Нет
При вычислениях CRC использовались нулевые сэмплы : Да
Интерфейс : Встроенный Win32-интерфейс для Win NT/2000
Выходной формат : Внутренние WAV-операции
Формат сэмплов : 44.100 Гц; 16 бит; стерео
TOC извлечённого CD
Трек | Старт | Длительность | Начальный сектор | Конечный сектор
---------------------------------------------------------------------
1 | 0:00.00 | 4:50.42 | 0 | 21791
2 | 4:50.42 | 5:00.41 | 21792 | 44332
3 | 9:51.08 | 4:34.74 | 44333 | 64956
4 | 14:26.07 | 7:12.23 | 64957 | 97379
5 | 21:38.30 | 5:25.74 | 97380 | 121828
6 | 27:04.29 | 5:37.31 | 121829 | 147134
7 | 32:41.60 | 6:19.68 | 147135 | 175627
8 | 39:01.53 | 7:11.35 | 175628 | 207987
9 | 46:13.13 | 5:31.51 | 207988 | 232863
10 | 51:44.64 | 9:05.52 | 232864 | 273790
11 | 60:50.41 | 7:04.16 | 273791 | 305606
Характеристики диапазона извлечения и сообщения об ошибках
Выбранный диапазон
Имя файла I:\APE\1\Happy Apple-Happy Apple Back On Top\Happy Apple - Happy Apple Back On Top.wav
Пиковый уровень 100.0 %
Качество диапазона 99.9 %
CRC копии 4358173C
Копирование... OK
Ошибок не произошло
Конец отчёта
Приватный:
Нет (DHT включён)
Размер:
365.68 Мб (383,445,182 байт) » файлов: 6
Участники:
0 раздают, 0 качают (0 участников всего)
Внешние участники:
1 раздают, 0 качают (1 участников всего) [ Обновить ]
No seeders - write a personal message to user M0p94ok. Нет сидеров - пишите личное сообщение пользователю M0p94ok.
05:10
64
Нет комментариев. Ваш будет первым!