Поиск

(Jazz, Avant-garde) Alexander von Schlippenbach Quintet - Monk's Casino (3 CD Box) - 2005, FLAC (tracks+.cue)

(Jazz, Avant-garde) Alexander von Schlippenbach Quintet - Monk's Casino (3 CD Box) - 2005, FLAC (tracks+.cue)
Треклист:
Alexander von Schlippenbach Quintet - Monk's Casino (3 CD Box)
Жанр: Jazz, Avant-garde
Год выпуска диска: 2005
Производитель диска: Intakt Records
Аудио кодек: FLAC
Тип рипа: tracks+.cue
Продолжительность: 3 часа 06 минут 44 секунды
Трэклист:
 
CD1
1. Thelonious
2. Locomotive
3. Trinkle-Tinkle
4. Stuffy Turkey
5. Coming On The Hudson
6. Intro Bemsha Swing
7. Bemsha Swing/52nd Street Theme
8. Pannonica
9. Evidence
10. Misterioso/Sixteen/Skippy
11. Monk's Point
12. Green Chimmeys/Little Rootie Tootie
13. San Francisco Holiday
14. Off Minor
15. Gallop's Gallop
16, Crepuscule With Nellie
17. Hackensack
18. Consecutive Second's
 
CD2
1. Brilliant Corners
2. Eronel
3. Monk's Dream
4. Shuffle Boil
5. Hornin' In
6. Criss Cross
7. Introspection
8. Ruby, My Dear
9. In Walked Bud
10. Let's Cool One/Let's Call This
11. Jackie-Ing
12. Humph
13. Functional
14. Work/I Mean You
15. Monk's Mood
16. Four In One/Round Midnight
17. Played Twice
18. Friday The 13th
19. Ugly Beauty
20. Bye-Ya/Oska T.
 
CD3
1. Bolivar Blues/Well You Need'nt
2. Brake's Sake
3. Nutty
4. Who Knows
5. Blue Hawk/North Of The Sunset/Blue Sphere
6. Boo Boo's Birthday
7. Ask Me Now
8. Think Of One
9. Raise Four
10. Japanese Folk Song/Children's Song/Blue Monk
11. We See
12. Bright Mississippi
13. Reflections
14. Five Spot Blues
15. Light Blue
16. Teo
17. Rhythm-A-Ning
18. A Merrier Christmas
19. Straight No Chaser/Epistrophy
Доп. информация: Состав:
Alexander von Schlippenbach- piano, trumpet;
Axel Dorner- trumpet;
Rudi Mahall- bass clarinet;
Jan Roder- bass;
Uli Jennessen- drums;
Aki Takase*- toy piano.
Обзоры:
http://www.allmusic.com/cg/amg.dll?p=amg&sql=10:0pfqxqydldhe
http://www.allaboutjazz.com/php/article.php?id=17548
http://www.onefinalnote.com/uaa/2005/unamerican56/
Информация на офсайте лэйбла: http://www.intaktrec.ch/100-a.htm
 
Отчёт EAC CD1
Exact Audio Copy V0.99 prebeta 4 from 23. January 2008
Отчёт EAC об извлечении, выполненном 9. ноября 2008, 2:31
Alexander von Schlippenbach Quintet / Monk's Casino (Disk 1)
Дисковод: PLEXTOR DVD-ROM PX-130A Adapter: 0 ID: 0
Режим чтения : Достоверность
Использование точного потока : Да
Отключение кэша аудио : Да
Использование указателей C2 : Нет
Коррекция смещения при чтении : 738
Способность читать области Lead-in и Lead-out : Нет
Заполнение пропущенных сэмплов тишиной : Да
Удаление блоков с тишиной в начале и конце : Нет
При вычислениях CRC использовались нулевые сэмплы : Да
Интерфейс : Установленный внешний ASPI-интерфейс
Обработка зазоров : Добавлено к предыдущему треку
Выходной формат : Пользовательский кодировщик
Выбранный битрейт : 768 kBit/s
Качество : Высокий
Добавление ID3-тэга : Нет
Утилита сжатия : C:\Program Files\Exact Audio Copy\Flac\flac.exe
Дополнительные параметры : -V -8 -T "artist=%a" -T "title=%t" -T "album=%g" -T "date=%y" -T "tracknumber=%n" -T "genre=%m" %s
TOC извлечённого CD
Трек | Старт | Длительность | Начальный сектор | Конечный сектор
---------------------------------------------------------------------
1 | 0:03.31 | 3:18.16 | 256 | 15121
2 | 3:21.47 | 1:37.33 | 15122 | 22429
3 | 4:59.05 | 4:10.63 | 22430 | 41242
4 | 9:09.68 | 0:44.03 | 41243 | 44545
5 | 9:53.71 | 3:40.35 | 44546 | 61080
6 | 13:34.31 | 3:29.37 | 61081 | 76792
7 | 17:03.68 | 5:10.71 | 76793 | 100113
8 | 22:14.64 | 1:36.01 | 100114 | 107314
9 | 23:50.65 | 4:25.73 | 107315 | 127262
10 | 28:16.63 | 10:05.42 | 127263 | 172679
11 | 38:22.30 | 1:23.57 | 172680 | 178961
12 | 39:46.12 | 5:21.20 | 178962 | 203056
13 | 45:07.32 | 1:21.31 | 203057 | 209162
14 | 46:28.63 | 2:23.63 | 209163 | 219950
15 | 48:52.51 | 5:34.65 | 219951 | 245065
16 | 54:27.41 | 2:18.04 | 245066 | 255419
17 | 56:45.45 | 3:56.19 | 255420 | 273138
18 | 60:41.64 | 2:48.10 | 273139 | 285748
Трек 1
Имя файла N:\AUDIO CD\! NEW\Alexander von Schlippenbach Quintet - Monk's Casino (Disk 1)\01 Thelonious.wav
Длина предзазора 0:00:05.31
Пиковый уровень 96.6 %
Качество трека 99.9 %
CRC теста 4170ECE3
CRC копии 4170ECE3
Трек не обнаружен в базе AccurateRip
Копирование... OK
Трек 2
Имя файла N:\AUDIO CD\! NEW\Alexander von Schlippenbach Quintet - Monk's Casino (Disk 1)\02 Locomotive.wav
Пиковый уровень 96.6 %
Качество трека 100.0 %
CRC теста F787A229
CRC копии F787A229
Трек не обнаружен в базе AccurateRip
Копирование... OK
Трек 3
Имя файла N:\AUDIO CD\! NEW\Alexander von Schlippenbach Quintet - Monk's Casino (Disk 1)\03 Trinkle-Tinkle.wav
Длина предзазора 0:00:00.09
Пиковый уровень 96.6 %
Качество трека 100.0 %
CRC теста D5F5A997
CRC копии D5F5A997
Трек не обнаружен в базе AccurateRip
Копирование... OK
Трек 4
Имя файла N:\AUDIO CD\! NEW\Alexander von Schlippenbach Quintet - Monk's Casino (Disk 1)\04 Stuffy Turkey.wav
Длина предзазора 0:00:00.07
Пиковый уровень 96.6 %
Качество трека 100.0 %
CRC теста EE229FE6
CRC копии EE229FE6
Трек не обнаружен в базе AccurateRip
Копирование... OK
Трек 5
Имя файла N:\AUDIO CD\! NEW\Alexander von Schlippenbach Quintet - Monk's Casino (Disk 1)\05 Coming On The Hudson.wav
Длина предзазора 0:00:00.15
Пиковый уровень 96.6 %
Качество трека 99.9 %
CRC теста E81B6B4F
CRC копии E81B6B4F
Трек не обнаружен в базе AccurateRip
Копирование... OK
Трек 6
Имя файла N:\AUDIO CD\! NEW\Alexander von Schlippenbach Quintet - Monk's Casino (Disk 1)\06 Intro Bemsha Swing.wav
Пиковый уровень 30.6 %
Качество трека 100.0 %
CRC теста 06D57126
CRC копии 06D57126
Трек не обнаружен в базе AccurateRip
Копирование... OK
Трек 7
Имя файла N:\AUDIO CD\! NEW\Alexander von Schlippenbach Quintet - Monk's Casino (Disk 1)\07 Bemsha Swing - 52nd Street Theme.wav
Длина предзазора 0:00:00.01
Пиковый уровень 96.6 %
Качество трека 100.0 %
CRC теста 947F53D1
CRC копии 947F53D1
Трек не обнаружен в базе AccurateRip
Копирование... OK
Трек 8
Имя файла N:\AUDIO CD\! NEW\Alexander von Schlippenbach Quintet - Monk's Casino (Disk 1)\08 Pannonica.wav
Длина предзазора 0:00:00.05
Пиковый уровень 96.6 %
Качество трека 100.0 %
CRC теста BEFBBC8F
CRC копии BEFBBC8F
Трек не обнаружен в базе AccurateRip
Копирование... OK
Трек 9
Имя файла N:\AUDIO CD\! NEW\Alexander von Schlippenbach Quintet - Monk's Casino (Disk 1)\09 Evidence.wav
Длина предзазора 0:00:00.08
Пиковый уровень 96.6 %
Качество трека 99.9 %
CRC теста C8EC4331
CRC копии C8EC4331
Трек не обнаружен в базе AccurateRip
Копирование... OK
Трек 10
Имя файла N:\AUDIO CD\! NEW\Alexander von Schlippenbach Quintet - Monk's Casino (Disk 1)\10 Misterioso - Sixteen - Skippy.wav
Длина предзазора 0:00:00.17
Пиковый уровень 96.6 %
Качество трека 100.0 %
CRC теста 27397175
CRC копии 27397175
Трек не обнаружен в базе AccurateRip
Копирование... OK
Трек 11
Имя файла N:\AUDIO CD\! NEW\Alexander von Schlippenbach Quintet - Monk's Casino (Disk 1)\11 Monk's Point.wav
Длина предзазора 0:00:00.11
Пиковый уровень 96.6 %
Качество трека 100.0 %
CRC теста DDB9A891
CRC копии DDB9A891
Трек не обнаружен в базе AccurateRip
Копирование... OK
Трек 12
Имя файла N:\AUDIO CD\! NEW\Alexander von Schlippenbach Quintet - Monk's Casino (Disk 1)\12 Green Chimneys - Little Rootie Tootie.wav
Длина предзазора 0:00:00.03
Пиковый уровень 96.6 %
Качество трека 100.0 %
CRC теста 6A706B9F
CRC копии 6A706B9F
Трек не обнаружен в базе AccurateRip
Копирование... OK
Трек 13
Имя файла N:\AUDIO CD\! NEW\Alexander von Schlippenbach Quintet - Monk's Casino (Disk 1)\13 San Francisco Holiday.wav
Длина предзазора 0:00:00.01
Пиковый уровень 96.6 %
Качество трека 100.0 %
CRC теста 8D18A262
CRC копии 8D18A262
Трек не обнаружен в базе AccurateRip
Копирование... OK
Трек 14
Имя файла N:\AUDIO CD\! NEW\Alexander von Schlippenbach Quintet - Monk's Casino (Disk 1)\14 Off Minor.wav
Длина предзазора 0:00:00.14
Пиковый уровень 96.6 %
Качество трека 100.0 %
CRC теста 21D0644F
CRC копии 21D0644F
Трек не обнаружен в базе AccurateRip
Копирование... OK
Трек 15
Имя файла N:\AUDIO CD\! NEW\Alexander von Schlippenbach Quintet - Monk's Casino (Disk 1)\15 Gallop's Gallop.wav
Длина предзазора 0:00:00.15
Пиковый уровень 96.6 %
Качество трека 100.0 %
CRC теста 145A3132
CRC копии 145A3132
Трек не обнаружен в базе AccurateRip
Копирование... OK
Трек 16
Имя файла N:\AUDIO CD\! NEW\Alexander von Schlippenbach Quintet - Monk's Casino (Disk 1)\16 Crepuscule With Nellie.wav
Длина предзазора 0:00:00.03
Пиковый уровень 96.6 %
Качество трека 100.0 %
CRC теста 34BB02CA
CRC копии 34BB02CA
Трек не обнаружен в базе AccurateRip
Копирование... OK
Трек 17
Имя файла N:\AUDIO CD\! NEW\Alexander von Schlippenbach Quintet - Monk's Casino (Disk 1)\17 Hackensack.wav
Длина предзазора 0:00:00.02
Пиковый уровень 96.6 %
Качество трека 100.0 %
CRC теста 059B39F6
CRC копии 059B39F6
Трек не обнаружен в базе AccurateRip
Копирование... OK
Трек 18
Имя файла N:\AUDIO CD\! NEW\Alexander von Schlippenbach Quintet - Monk's Casino (Disk 1)\18 Consecutive Seconds.wav
Пиковый уровень 96.6 %
Качество трека 100.0 %
CRC теста 915FA600
CRC копии 915FA600
Трек не обнаружен в базе AccurateRip
Копирование... OK
Ни одного трека нет в базе AccurateRip
Ошибок не произошло
Конец отчёта
 
Отчёт EAC CD2
Exact Audio Copy V0.99 prebeta 4 from 23. January 2008
Отчёт EAC об извлечении, выполненном 9. ноября 2008, 13:43
Alexander von Schlippenbach Quintet / Monk's Casino (Disk 2)
Дисковод: PLEXTOR DVD-ROM PX-130A Adapter: 0 ID: 0
Режим чтения : Достоверность
Использование точного потока : Да
Отключение кэша аудио : Да
Использование указателей C2 : Нет
Коррекция смещения при чтении : 738
Способность читать области Lead-in и Lead-out : Нет
Заполнение пропущенных сэмплов тишиной : Да
Удаление блоков с тишиной в начале и конце : Нет
При вычислениях CRC использовались нулевые сэмплы : Да
Интерфейс : Установленный внешний ASPI-интерфейс
Обработка зазоров : Добавлено к предыдущему треку
Выходной формат : Пользовательский кодировщик
Выбранный битрейт : 768 kBit/s
Качество : Высокий
Добавление ID3-тэга : Нет
Утилита сжатия : C:\Program Files\Exact Audio Copy\Flac\flac.exe
Дополнительные параметры : -V -8 -T "artist=%a" -T "title=%t" -T "album=%g" -T "date=%y" -T "tracknumber=%n" -T "genre=%m" %s
TOC извлечённого CD
Трек | Старт | Длительность | Начальный сектор | Конечный сектор
---------------------------------------------------------------------
1 | 0:00.00 | 4:14.45 | 0 | 19094
2 | 4:14.45 | 3:35.58 | 19095 | 35277
3 | 7:50.28 | 2:19.15 | 35278 | 45717
4 | 10:09.43 | 2:46.39 | 45718 | 58206
5 | 12:56.07 | 5:21.33 | 58207 | 82314
6 | 18:17.40 | 3:19.01 | 82315 | 97240
7 | 21:36.41 | 4:14.74 | 97241 | 116364
8 | 25:51.40 | 0:58.48 | 116365 | 120762
9 | 26:50.13 | 4:22.58 | 120763 | 140470
10 | 31:12.71 | 3:53.05 | 140471 | 157950
11 | 35:06.01 | 2:45.54 | 157951 | 170379
12 | 37:51.55 | 3:11.30 | 170380 | 184734
13 | 41:03.10 | 0:53.03 | 184735 | 188712
14 | 41:56.13 | 3:53.67 | 188713 | 206254
15 | 45:50.05 | 3:21.09 | 206255 | 221338
16 | 49:11.14 | 6:21.68 | 221339 | 249981
17 | 55:33.07 | 5:37.35 | 249982 | 275291
18 | 61:10.42 | 1:24.41 | 275292 | 281632
19 | 62:35.08 | 2:45.47 | 281633 | 294054
20 | 65:20.55 | 0:48.52 | 294055 | 297706
Трек 1
Имя файла N:\AUDIO CD\! NEW\Alexander von Schlippenbach Quintet - Monk's Casino (Disk 2)\01 Brilliant Corners.wav
Длина предзазора 0:00:02.00
Пиковый уровень 89.1 %
Качество трека 100.0 %
CRC теста 2A54118D
CRC копии 2A54118D
Точность не определена (достоверность 2) [DF0A13B5], AccurateRip вернул [0272A6C2]
Копирование... OK
Трек 2
Имя файла N:\AUDIO CD\! NEW\Alexander von Schlippenbach Quintet - Monk's Casino (Disk 2)\02 Eronel.wav
Пиковый уровень 50.1 %
Качество трека 100.0 %
CRC теста 15C105E2
CRC копии 15C105E2
Точность не определена (достоверность 2) [05C249E2], AccurateRip вернул [068E5B15]
Копирование... OK
Трек 3
Имя файла N:\AUDIO CD\! NEW\Alexander von Schlippenbach Quintet - Monk's Casino (Disk 2)\03 Monk's Dream.wav
Пиковый уровень 89.1 %
Качество трека 100.0 %
CRC теста 7A001FDC
CRC копии 7A001FDC
Точность не определена (достоверность 2) [F45E0685], AccurateRip вернул [8D31414F]
Копирование... OK
Трек 4
Имя файла N:\AUDIO CD\! NEW\Alexander von Schlippenbach Quintet - Monk's Casino (Disk 2)\04 Shuffle Boll.wav
Пиковый уровень 89.1 %
Качество трека 100.0 %
CRC теста C4064593
CRC копии C4064593
Точность не определена (достоверность 2) [C3593CAE], AccurateRip вернул [BC074E86]
Копирование... OK
Трек 5
Имя файла N:\AUDIO CD\! NEW\Alexander von Schlippenbach Quintet - Monk's Casino (Disk 2)\05 Hornin' In.wav
Пиковый уровень 89.1 %
Качество трека 99.9 %
CRC теста C2A0F90C
CRC копии C2A0F90C
Точность не определена (достоверность 2) [1328FB3E], AccurateRip вернул [A56A4E71]
Копирование... OK
Трек 6
Имя файла N:\AUDIO CD\! NEW\Alexander von Schlippenbach Quintet - Monk's Casino (Disk 2)\06 Criss Cross.wav
Пиковый уровень 89.1 %
Качество трека 100.0 %
CRC теста 60021C77
CRC копии 60021C77
Точность не определена (достоверность 2) [BA2DDD5A], AccurateRip вернул [FB9C23D8]
Копирование... OK
Трек 7
Имя файла N:\AUDIO CD\! NEW\Alexander von Schlippenbach Quintet - Monk's Casino (Disk 2)\07 Introspection.wav
Пиковый уровень 89.1 %
Качество трека 100.0 %
CRC теста B460FF68
CRC копии B460FF68
Точность не определена (достоверность 2) [F9A5E144], AccurateRip вернул [9C3FC2ED]
Копирование... OK
Трек 8
Имя файла N:\AUDIO CD\! NEW\Alexander von Schlippenbach Quintet - Monk's Casino (Disk 2)\08 Ruby, My Dear.wav
Пиковый уровень 89.1 %
Качество трека 100.0 %
CRC теста 114D06DC
CRC копии 114D06DC
Точность не определена (достоверность 2) [5532A541], AccurateRip вернул [FF250BF1]
Копирование... OK
Трек 9
Имя файла N:\AUDIO CD\! NEW\Alexander von Schlippenbach Quintet - Monk's Casino (Disk 2)\09 In Walked Bud.wav
Пиковый уровень 89.1 %
Качество трека 100.0 %
CRC теста BAEC4BE2
CRC копии BAEC4BE2
Точность не определена (достоверность 2) [62174F6B], AccurateRip вернул [2EA2CC20]
Копирование... OK
Трек 10
Имя файла N:\AUDIO CD\! NEW\Alexander von Schlippenbach Quintet - Monk's Casino (Disk 2)\10 Let's Cool One Let's Call This.wav
Пиковый уровень 89.1 %
Качество трека 100.0 %
CRC теста 87D149C6
CRC копии 87D149C6
Точность не определена (достоверность 2) [745285C8], AccurateRip вернул [515A327B]
Копирование... OK
Трек 11
Имя файла N:\AUDIO CD\! NEW\Alexander von Schlippenbach Quintet - Monk's Casino (Disk 2)\11 Jackie-ing.wav
Пиковый уровень 89.1 %
Качество трека 99.9 %
CRC теста F152AC39
CRC копии F152AC39
Точность не определена (достоверность 2) [EFD4D09F], AccurateRip вернул [534E515C]
Копирование... OK
Трек 12
Имя файла N:\AUDIO CD\! NEW\Alexander von Schlippenbach Quintet - Monk's Casino (Disk 2)\12 Humph.wav
Пиковый уровень 89.1 %
Качество трека 100.0 %
CRC теста 3E2AB828
CRC копии 3E2AB828
Точность не определена (достоверность 2) [FD180F4F], AccurateRip вернул [1FA5986E]
Копирование... OK
Трек 13
Имя файла N:\AUDIO CD\! NEW\Alexander von Schlippenbach Quintet - Monk's Casino (Disk 2)\13 Functional.wav
Пиковый уровень 89.1 %
Качество трека 100.0 %
CRC теста 9D2321D7
CRC копии 9D2321D7
Точность не определена (достоверность 2) [2235BAEC], AccurateRip вернул [F460D317]
Копирование... OK
Трек 14
Имя файла N:\AUDIO CD\! NEW\Alexander von Schlippenbach Quintet - Monk's Casino (Disk 2)\14 Work, I Mean You.wav
Пиковый уровень 89.1 %
Качество трека 100.0 %
CRC теста CDA09C8F
CRC копии CDA09C8F
Точность не определена (достоверность 2) [52EC3040], AccurateRip вернул [7FCC285F]
Копирование... OK
Трек 15
Имя файла N:\AUDIO CD\! NEW\Alexander von Schlippenbach Quintet - Monk's Casino (Disk 2)\15 Monk's Mood.wav
Пиковый уровень 89.1 %
Качество трека 100.0 %
CRC теста AA02F022
CRC копии AA02F022
Точность не определена (достоверность 2) [A1F83DEF], AccurateRip вернул [5429FA6E]
Копирование... OK
Трек 16
Имя файла N:\AUDIO CD\! NEW\Alexander von Schlippenbach Quintet - Monk's Casino (Disk 2)\16 Four In One, Round About Midnight.wav
Пиковый уровень 89.1 %
Качество трека 100.0 %
CRC теста D5B9BEDD
CRC копии D5B9BEDD
Точность не определена (достоверность 2) [A4F705E5], AccurateRip вернул [A9A71800]
Копирование... OK
Трек 17
Имя файла N:\AUDIO CD\! NEW\Alexander von Schlippenbach Quintet - Monk's Casino (Disk 2)\17 Played Twice.wav
Пиковый уровень 89.1 %
Качество трека 100.0 %
CRC теста 2101F9C8
CRC копии 2101F9C8
Точность не определена (достоверность 2) [204551AD], AccurateRip вернул [2C37D017]
Копирование... OK
Трек 18
Имя файла N:\AUDIO CD\! NEW\Alexander von Schlippenbach Quintet - Monk's Casino (Disk 2)\18 Friday The 13th.wav
Пиковый уровень 89.1 %
Качество трека 100.0 %
CRC теста 3C98CD08
CRC копии 3C98CD08
Точность не определена (достоверность 2) [17939C8D], AccurateRip вернул [1DCE66E3]
Копирование... OK
Трек 19
Имя файла N:\AUDIO CD\! NEW\Alexander von Schlippenbach Quintet - Monk's Casino (Disk 2)\19 Ugly Beauty.wav
Пиковый уровень 65.8 %
Качество трека 100.0 %
CRC теста 3312A42B
CRC копии 3312A42B
Точность не определена (достоверность 2) [8F59C221], AccurateRip вернул [8E52832C]
Копирование... OK
Трек 20
Имя файла N:\AUDIO CD\! NEW\Alexander von Schlippenbach Quintet - Monk's Casino (Disk 2)\20 Bye-Ya, Oska T..wav
Пиковый уровень 89.1 %
Качество трека 100.0 %
CRC теста DC64654B
CRC копии DC64654B
Точность не определена (достоверность 2) [F5224823], AccurateRip вернул [4A98C909]
Копирование... OK
Ни один трек не прошёл проверки на точность
В вашей базе может быть иной вариант штамповки диска
Ошибок не произошло
Конец отчёта
 
Отчёт EAC CD3
Exact Audio Copy V0.99 prebeta 4 from 23. January 2008
Отчёт EAC об извлечении, выполненном 9. ноября 2008, 14:55
Alexander von Schlippenbach Quintet / Monk's Casino (Disk 3)
Дисковод: PLEXTOR DVD-ROM PX-130A Adapter: 0 ID: 0
Режим чтения : Достоверность
Использование точного потока : Да
Отключение кэша аудио : Да
Использование указателей C2 : Нет
Коррекция смещения при чтении : 738
Способность читать области Lead-in и Lead-out : Нет
Заполнение пропущенных сэмплов тишиной : Да
Удаление блоков с тишиной в начале и конце : Нет
При вычислениях CRC использовались нулевые сэмплы : Да
Интерфейс : Установленный внешний ASPI-интерфейс
Обработка зазоров : Добавлено к предыдущему треку
Выходной формат : Пользовательский кодировщик
Выбранный битрейт : 768 kBit/s
Качество : Высокий
Добавление ID3-тэга : Нет
Утилита сжатия : C:\Program Files\Exact Audio Copy\Flac\flac.exe
Дополнительные параметры : -V -8 -T "artist=%a" -T "title=%t" -T "album=%g" -T "date=%y" -T "tracknumber=%n" -T "genre=%m" %s
TOC извлечённого CD
Трек | Старт | Длительность | Начальный сектор | Конечный сектор
---------------------------------------------------------------------
1 | 0:00.00 | 2:48.56 | 0 | 12655
2 | 2:48.56 | 1:22.35 | 12656 | 18840
3 | 4:11.16 | 2:41.15 | 18841 | 30930
4 | 6:52.31 | 2:28.70 | 30931 | 42100
5 | 9:21.26 | 1:40.13 | 42101 | 49613
6 | 11:01.39 | 4:31.39 | 49614 | 69977
7 | 15:33.03 | 5:12.13 | 69978 | 93390
8 | 20:45.16 | 2:29.26 | 93391 | 104591
9 | 23:14.42 | 0:58.47 | 104592 | 108988
10 | 24:13.14 | 5:35.40 | 108989 | 134153
11 | 29:48.54 | 3:11.16 | 134154 | 148494
12 | 32:59.70 | 2:41.10 | 148495 | 160579
13 | 35:41.05 | 1:48.13 | 160580 | 168692
14 | 37:29.18 | 1:29.33 | 168693 | 175400
15 | 38:58.51 | 0:59.31 | 175401 | 179856
16 | 39:58.07 | 3:47.45 | 179857 | 196926
17 | 43:45.52 | 5:57.18 | 196927 | 223719
18 | 49:42.70 | 0:41.42 | 223720 | 226836
19 | 50:24.37 | 6:43.68 | 226837 | 257129
Трек 1
Имя файла N:\AUDIO CD\! NEW\Alexander von Schlippenbach Quintet - Monk's Casino (Disk 3)\01 Bolivar Blues _ Well You Needn't.wav
Длина предзазора 0:00:02.00
Пиковый уровень 100.0 %
Качество трека 100.0 %
CRC теста B300954B
CRC копии B300954B
Точность не определена (достоверность 2) [4C30A4C1], AccurateRip вернул [90D02A6F]
Копирование... OK
Трек 2
Имя файла N:\AUDIO CD\! NEW\Alexander von Schlippenbach Quintet - Monk's Casino (Disk 3)\02 Brake's Sake.wav
Пиковый уровень 94.8 %
Качество трека 100.0 %
CRC теста 26E8072A
CRC копии 26E8072A
Точность не определена (достоверность 2) [F6640E78], AccurateRip вернул [756794C7]
Копирование... OK
Трек 3
Имя файла N:\AUDIO CD\! NEW\Alexander von Schlippenbach Quintet - Monk's Casino (Disk 3)\03 Nutty.wav
Пиковый уровень 88.7 %
Качество трека 100.0 %
CRC теста 5182BEE0
CRC копии 5182BEE0
Точность не определена (достоверность 2) [C98E1217], AccurateRip вернул [08A2BC28]
Копирование... OK
Трек 4
Имя файла N:\AUDIO CD\! NEW\Alexander von Schlippenbach Quintet - Monk's Casino (Disk 3)\04 Who Knows.wav
Пиковый уровень 92.4 %
Качество трека 100.0 %
CRC теста 1A682B63
CRC копии 1A682B63
Точность не определена (достоверность 2) [73C9B284], AccurateRip вернул [05068944]
Копирование... OK
Трек 5
Имя файла N:\AUDIO CD\! NEW\Alexander von Schlippenbach Quintet - Monk's Casino (Disk 3)\05 Blue Hawk _ North Of The Sunset _ Blue Sphere _ Something in Blue.wav
Пиковый уровень 90.4 %
Качество трека 100.0 %
CRC теста A7374A2A
CRC копии A7374A2A
Точность не определена (достоверность 2) [27B2D409], AccurateRip вернул [89AC6A5F]
Копирование... OK
Трек 6
Имя файла N:\AUDIO CD\! NEW\Alexander von Schlippenbach Quintet - Monk's Casino (Disk 3)\06 Boo Boo's Birthday.wav
Пиковый уровень 97.1 %
Качество трека 100.0 %
CRC теста 5C3AA349
CRC копии 5C3AA349
Точность не определена (достоверность 2) [B143159B], AccurateRip вернул [E42162F3]
Копирование... OK
Трек 7
Имя файла N:\AUDIO CD\! NEW\Alexander von Schlippenbach Quintet - Monk's Casino (Disk 3)\07 Ask Me Now.wav
Пиковый уровень 99.7 %
Качество трека 100.0 %
CRC теста B96DCACE
CRC копии B96DCACE
Точность не определена (достоверность 2) [7ED72225], AccurateRip вернул [4DE4AF25]
Копирование... OK
Трек 8
Имя файла N:\AUDIO CD\! NEW\Alexander von Schlippenbach Quintet - Monk's Casino (Disk 3)\08 Think Of One.wav
Пиковый уровень 100.0 %
Качество трека 100.0 %
CRC теста A2E75728
CRC копии A2E75728
Точность не определена (достоверность 2) [0A9D016F], AccurateRip вернул [61DA588D]
Копирование... OK
Трек 9
Имя файла N:\AUDIO CD\! NEW\Alexander von Schlippenbach Quintet - Monk's Casino (Disk 3)\09 Raise Four.wav
Пиковый уровень 89.5 %
Качество трека 100.0 %
CRC теста A011273E
CRC копии A011273E
Точность не определена (достоверность 2) [9970F34B], AccurateRip вернул [E3E3000A]
Копирование... OK
Трек 10
Имя файла N:\AUDIO CD\! NEW\Alexander von Schlippenbach Quintet - Monk's Casino (Disk 3)\10 Japanese Folk Song _ Children's Song _ Blue Monk.wav
Пиковый уровень 97.5 %
Качество трека 100.0 %
CRC теста 0B26F136
CRC копии 0B26F136
Точность не определена (достоверность 2) [3FE11B42], AccurateRip вернул [F78F5713]
Копирование... OK
Трек 11
Имя файла N:\AUDIO CD\! NEW\Alexander von Schlippenbach Quintet - Monk's Casino (Disk 3)\11 Wee See.wav
Пиковый уровень 92.4 %
Качество трека 100.0 %
CRC теста 8DA433AE
CRC копии 8DA433AE
Точность не определена (достоверность 2) [41B0449C], AccurateRip вернул [8EB78D4B]
Копирование... OK
Трек 12
Имя файла N:\AUDIO CD\! NEW\Alexander von Schlippenbach Quintet - Monk's Casino (Disk 3)\12 Bright MIssissippi.wav
Пиковый уровень 92.8 %
Качество трека 100.0 %
CRC теста C0B8A3AE
CRC копии C0B8A3AE
Точность не определена (достоверность 2) [D5FBD85B], AccurateRip вернул [98C919EE]
Копирование... OK
Трек 13
Имя файла N:\AUDIO CD\! NEW\Alexander von Schlippenbach Quintet - Monk's Casino (Disk 3)\13 Reflrections.wav
Пиковый уровень 92.9 %
Качество трека 100.0 %
CRC теста EDBB2CE3
CRC копии EDBB2CE3
Точность не определена (достоверность 2) [03A3C01B], AccurateRip вернул [023EAF01]
Копирование... OK
Трек 14
Имя файла N:\AUDIO CD\! NEW\Alexander von Schlippenbach Quintet - Monk's Casino (Disk 3)\14 Five Spot Blues.wav
Пиковый уровень 89.0 %
Качество трека 100.0 %
CRC теста 417DF9B9
CRC копии 417DF9B9
Точность не определена (достоверность 2) [7789A07E], AccurateRip вернул [556A4985]
Копирование... OK
Трек 15
Имя файла N:\AUDIO CD\! NEW\Alexander von Schlippenbach Quintet - Monk's Casino (Disk 3)\15 Light Blue.wav
Пиковый уровень 90.0 %
Качество трека 99.8 %
CRC теста 811EB6EA
CRC копии 811EB6EA
Точность не определена (достоверность 2) [24124CD5], AccurateRip вернул [7DBBBB12]
Копирование... OK
Трек 16
Имя файла N:\AUDIO CD\! NEW\Alexander von Schlippenbach Quintet - Monk's Casino (Disk 3)\16 Teo.wav
Пиковый уровень 94.4 %
Качество трека 100.0 %
CRC теста A1F885C0
CRC копии A1F885C0
Точность не определена (достоверность 2) [6D1F1058], AccurateRip вернул [CA8431B7]
Копирование... OK
Трек 17
Имя файла N:\AUDIO CD\! NEW\Alexander von Schlippenbach Quintet - Monk's Casino (Disk 3)\17 Rhythm a ning.wav
Пиковый уровень 100.0 %
Качество трека 100.0 %
CRC теста EB53E6C3
CRC копии EB53E6C3
Точность не определена (достоверность 2) [8F6C2C3E], AccurateRip вернул [0228DAEE]
Копирование... OK
Трек 18
Имя файла N:\AUDIO CD\! NEW\Alexander von Schlippenbach Quintet - Monk's Casino (Disk 3)\18 A Merrier Christmas.wav
Пиковый уровень 98.4 %
Качество трека 100.0 %
CRC теста CDCDFA31
CRC копии CDCDFA31
Точность не определена (достоверность 2) [C4B93E3F], AccurateRip вернул [E8B04014]
Копирование... OK
Трек 19
Имя файла N:\AUDIO CD\! NEW\Alexander von Schlippenbach Quintet - Monk's Casino (Disk 3)\19 Straight No Chaser _ Epistrophy.wav
Пиковый уровень 96.5 %
Качество трека 100.0 %
CRC теста 5BC2230C
CRC копии 5BC2230C
Точность не определена (достоверность 2) [3B14DF1D], AccurateRip вернул [DB99B7F6]
Копирование... OK
Ни один трек не прошёл проверки на точность
В вашей базе может быть иной вариант штамповки диска
Ошибок не произошло
Конец отчёта
Приватный:
Нет (DHT включён)
Размер:
1.13 Гб (1,213,906,457 байт) » файлов: 63
Участники:
0 раздают, 0 качают (0 участников всего)
Внешние участники:
2 раздают, 1 качают (3 участников всего) [ Обновить ]
No seeders - write a personal message to user M0p94ok. Нет сидеров - пишите личное сообщение пользователю M0p94ok.
05:04
78
Нет комментариев. Ваш будет первым!