Поиск

(Avant-Garde / Modern Creative / Free Jazz) Mark Dresser - Force Green - 1995, FLAC (image+.cue), lossless

(Avant-Garde / Modern Creative / Free Jazz) Mark Dresser - Force Green - 1995, FLAC (image+.cue), lossless
Треклист:
Mark Dresser - Force Green
Жанр: Avant-Garde / Modern Creative / Free Jazz
Год выпуска диска: 1995
Производитель диска: Italy (Soul Note)
Аудио кодек: FLAC
Тип рипа: image+.cue
Битрейт аудио: lossless
Продолжительность: 59:00
Dave Douglas trumpet
Denman Maroney piano
Mark Dresser bass
Phil Haynes drums
Theo Bleckmann voice
Tim Berne producer
1. Focus
2. Force Cuisine
3. Ediface
4. Bosnia
5. For Miles
6. Castles for Carter / J.C. / Chain / Armadillo / B.B.J.C. / Coda

 
EAC Report
Exact Audio Copy V0.99 prebeta 4 from 23. January 2008
EAC extraction logfile from 19. October 2008, 19:35
Mark Dresser / Force Green
Used drive : TSSTcorpCD/DVDW SH-S182M Adapter: 2 ID: 0
Read mode : Secure
Utilize accurate stream : Yes
Defeat audio cache : Yes
Make use of C2 pointers : No
Read offset correction : 6
Overread into Lead-In and Lead-Out : No
Fill up missing offset samples with silence : Yes
Delete leading and trailing silent blocks : No
Null samples used in CRC calculations : Yes
Used interface : Installed external ASPI interface
Used output format : User Defined Encoder
Selected bitrate : 1024 kBit/s
Quality : High
Add ID3 tag : No
Command line compressor : C:\Program Files\Exact Audio Copy\FLAC\FLAC.EXE
Additional command line options : -6 -V -T "ARTIST=%a" -T "TITLE=%t" -T "ALBUM=%g" -T "DATE=%y" -T "TRACKNUMBER=%n" -T "GENRE=%m" -T "COMMENT=%e" %s -o %d
TOC of the extracted CD
Track | Start | Length | Start sector | End sector
---------------------------------------------------------
1 | 0:00.33 | 3:47.52 | 33 | 17109
2 | 3:48.10 | 9:25.23 | 17110 | 59507
3 | 13:13.33 | 8:12.35 | 59508 | 96442
4 | 21:25.68 | 7:58.65 | 96443 | 132357
5 | 29:24.58 | 6:18.12 | 132358 | 160719
6 | 35:42.70 | 23:17.38 | 160720 | 265532
Range status and errors
Selected range
Filename C:\z\Mark Dresser - Force Green.wav
Peak level 99.9 %
Range quality 99.9 %
Copy CRC C44BDD15
Copy OK
No errors occurred
AccurateRip summary
Track 1 not present in database
Track 2 not present in database
Track 3 not present in database
Track 4 not present in database
Track 5 not present in database
Track 6 not present in database
None of the tracks are present in the AccurateRip database
End of status report
Приватный:
Нет (DHT включён)
Размер:
264.67 Мб (277,525,307 байт) » файлов: 5
Участники:
0 раздают, 0 качают (0 участников всего)
Внешние участники:
1 раздают, 0 качают (1 участников всего) [ Обновить ]
No seeders - write a personal message to user M0p94ok. Нет сидеров - пишите личное сообщение пользователю M0p94ok.
05:03
59
Нет комментариев. Ваш будет первым!