Поиск

(Avant-Garde) Tripleplay (Ken Vandermark, Nate McBride, Curt Newton) - Gambit - 2004, FLAC (tracks+.cue)

(Avant-Garde) Tripleplay (Ken Vandermark, Nate McBride, Curt Newton) - Gambit - 2004, FLAC (tracks+.cue)
Треклист:
Tripleplay (Ken Vandermark, Nate McBride, Curt Newton) - Gambit
Жанр: Avant-Garde
Год выпуска диска: 2004
Производитель диска: Clean Feed
Аудио кодек: FLAC
Тип рипа: tracks+.cue
Продолжительность: 54:25
Трэклист:
1. Rastro 5 (For Emir Kusturica)
2. Framinghammer
3. Two (For Joe Morris)
4. Barker Waters
5. F-Stop (For Robert Frank)
6. Bird, Field (Gray)
7. Hydro
8. Tilted (For Robert Pete Williams)
Доп. информация:
Состав коллектива:
Ken Vandermark - reeds
Nate McBride - bass
Curt Newton - drums
p.s.: Это мой первый диск, благодаря которому я начал знакомство с современным авангардным джазом! Очень, помню, понравился, произвёл впечатление... захотелось продолжить знакомство с этим музыкальным направлением!
 
Отчёт EAC
Exact Audio Copy V0.99 prebeta 4 from 23. January 2008
Отчёт EAC об извлечении, выполненном 7. ноября 2008, 18:46
tripleplay / gambit
Дисковод: PLEXTOR DVD-ROM PX-130A Adapter: 0 ID: 0
Режим чтения : Достоверность
Использование точного потока : Да
Отключение кэша аудио : Да
Использование указателей C2 : Нет
Коррекция смещения при чтении : 738
Способность читать области Lead-in и Lead-out : Нет
Заполнение пропущенных сэмплов тишиной : Да
Удаление блоков с тишиной в начале и конце : Нет
При вычислениях CRC использовались нулевые сэмплы : Да
Интерфейс : Установленный внешний ASPI-интерфейс
Обработка зазоров : Добавлено к предыдущему треку
Выходной формат : Пользовательский кодировщик
Выбранный битрейт : 768 kBit/s
Качество : Высокий
Добавление ID3-тэга : Нет
Утилита сжатия : C:\Program Files\Exact Audio Copy\Flac\flac.exe
Дополнительные параметры : -V -8 -T "artist=%a" -T "title=%t" -T "album=%g" -T "date=%y" -T "tracknumber=%n" -T "genre=%m" %s
TOC извлечённого CD
Трек | Старт | Длительность | Начальный сектор | Конечный сектор
---------------------------------------------------------------------
1 | 0:00.00 | 7:19.62 | 0 | 32986
2 | 7:19.62 | 7:20.26 | 32987 | 66012
3 | 14:40.13 | 4:06.68 | 66013 | 84530
4 | 18:47.06 | 7:53.28 | 84531 | 120033
5 | 26:40.34 | 5:38.61 | 120034 | 145444
6 | 32:19.20 | 9:14.66 | 145445 | 187060
7 | 41:34.11 | 5:44.42 | 187061 | 212902
8 | 47:18.53 | 7:06.41 | 212903 | 244893
Трек 1
Имя файла N:\AUDIO CD\! NEW\tripleplay - gambit\01 rastro 5.wav
Длина предзазора 0:00:02.00
Пиковый уровень 98.9 %
Качество трека 100.0 %
CRC теста 525CD723
CRC копии 525CD723
Трек не обнаружен в базе AccurateRip
Копирование... OK
Трек 2
Имя файла N:\AUDIO CD\! NEW\tripleplay - gambit\02 framinghammer.wav
Пиковый уровень 98.8 %
Качество трека 100.0 %
CRC теста 0EAD908F
CRC копии 0EAD908F
Трек не обнаружен в базе AccurateRip
Копирование... OK
Трек 3
Имя файла N:\AUDIO CD\! NEW\tripleplay - gambit\03 two.wav
Пиковый уровень 98.8 %
Качество трека 100.0 %
CRC теста 994D3A99
CRC копии 994D3A99
Трек не обнаружен в базе AccurateRip
Копирование... OK
Трек 4
Имя файла N:\AUDIO CD\! NEW\tripleplay - gambit\04 barker waters.wav
Пиковый уровень 98.8 %
Качество трека 100.0 %
CRC теста 01461CA9
CRC копии 01461CA9
Трек не обнаружен в базе AccurateRip
Копирование... OK
Трек 5
Имя файла N:\AUDIO CD\! NEW\tripleplay - gambit\05 f-stop.wav
Пиковый уровень 98.8 %
Качество трека 100.0 %
CRC теста 2746B7CC
CRC копии 2746B7CC
Трек не обнаружен в базе AccurateRip
Копирование... OK
Трек 6
Имя файла N:\AUDIO CD\! NEW\tripleplay - gambit\06 bird, field (gray).wav
Пиковый уровень 98.8 %
Качество трека 99.9 %
CRC теста B9DD3931
CRC копии B9DD3931
Трек не обнаружен в базе AccurateRip
Копирование... OK
Трек 7
Имя файла N:\AUDIO CD\! NEW\tripleplay - gambit\07 hydro.wav
Пиковый уровень 98.8 %
Качество трека 100.0 %
CRC теста C0182FAF
CRC копии C0182FAF
Трек не обнаружен в базе AccurateRip
Копирование... OK
Трек 8
Имя файла N:\AUDIO CD\! NEW\tripleplay - gambit\08 tilted.wav
Пиковый уровень 100.0 %
Качество трека 100.0 %
CRC теста 9DB4F022
CRC копии 9DB4F022
Трек не обнаружен в базе AccurateRip
Копирование... OK
Ни одного трека нет в базе AccurateRip
Ошибок не произошло
Конец отчёта
Приватный:
Нет (DHT включён)
Размер:
310.82 Мб (325,919,229 байт) » файлов: 10
Участники:
0 раздают, 0 качают (0 участников всего)
Внешние участники:
5 раздают, 1 качают (6 участников всего) [ Обновить ]
No seeders - write a personal message to user M0p94ok. Нет сидеров - пишите личное сообщение пользователю M0p94ok.
05:03
60
Нет комментариев. Ваш будет первым!