Поиск

(Jazz/Free Jazz) Alexander von Schlippenbach - Schlippenbach Plays Monk - 1996, FLAC (tracks+.cue), lossless

(Jazz/Free Jazz) Alexander von Schlippenbach - Schlippenbach Plays Monk - 1996, FLAC (tracks+.cue), lossless
Треклист:
Alexander von Schlippenbach - Schlippenbach Plays Monk
Жанр: Jazz/Free Jazz
Год выпуска : 1996
Аудио кодек: FLAC
Тип рипа: tracks+.cue
Битрейт аудио: lossless
Продолжительность: 01:02:31
Признательность за рип: bruckner

1. Bye-A (4:15)
2. Lokomotive (2:06)
3. Skippy (4:29)
4. Off Minor (4:04)
5. Let's Cool One (3:38)
6. Pannonica (1:20)
7. Evidence (4:38)
8. Coming on the Hudson (3:54)
9. Work (7:17)
10. Ruby My Dear (5:06)
11. Trinkle Tinkle (6:27)
12. 'Round about Midnight (6:06)
13. Bolivar Blues (4:21)
14. Light Blue (4:50)
 
ЕАС
Exact Audio Copy V0.99 prebeta 4 from 23. January 2008
EAC extraction logfile from 6. November 2008, 1:36
Alexander von Schlippenbach / Schlippenbach Plays Monk
Used drive : HL-DT-STCD-RW GCE-8527B Adapter: 1 ID: 0
Read mode : Secure
Utilize accurate stream : Yes
Defeat audio cache : Yes
Make use of C2 pointers : No
Read offset correction : 6
Overread into Lead-In and Lead-Out : No
Fill up missing offset samples with silence : Yes
Delete leading and trailing silent blocks : No
Null samples used in CRC calculations : Yes
Used interface : Native Win32 interface for Win NT & 2000
Gap handling : Appended to previous track
Used output format : User Defined Encoder
Selected bitrate : 1024 kBit/s
Quality : High
Add ID3 tag : No
Command line compressor : C:\Program Files\Exact Audio Copy\FLAC\FLAC.EXE
Additional command line options : -8 -V -T "ARTIST=%a" -T "TITLE=%t" -T "ALBUM=%g" -T "DATE=%y" -T "TRACKNUMBER=%n" -T "GENRE=%m" -T "COMMENT=EAC FLAC -8" %s
TOC of the extracted CD
Track | Start | Length | Start sector | End sector
---------------------------------------------------------
1 | 0:00.00 | 4:15.45 | 0 | 19169
2 | 4:15.45 | 2:06.55 | 19170 | 28674
3 | 6:22.25 | 4:29.30 | 28675 | 48879
4 | 10:51.55 | 4:04.50 | 48880 | 67229
5 | 14:56.30 | 3:38.32 | 67230 | 83611
6 | 18:34.62 | 1:20.73 | 83612 | 89684
7 | 19:55.60 | 4:38.00 | 89685 | 110534
8 | 24:33.60 | 3:54.37 | 110535 | 128121
9 | 28:28.22 | 7:17.15 | 128122 | 160911
10 | 35:45.37 | 5:06.53 | 160912 | 183914
11 | 40:52.15 | 6:27.37 | 183915 | 212976
12 | 47:19.52 | 6:06.40 | 212977 | 240466
13 | 53:26.17 | 4:21.53 | 240467 | 260094
14 | 57:47.70 | 4:50.35 | 260095 | 281879
Track 1
Filename C:\Alexander von Schlippenbach - Schlippenbach Plays Monk (1996) [FLAC]\01 - Bye-A.wav
Pre-gap length 0:00:02.00
Peak level 98.2 %
Track quality 100.0 %
Test CRC 60541DF2
Copy CRC 60541DF2
Copy OK
Track 2
Filename C:\Alexander von Schlippenbach - Schlippenbach Plays Monk (1996) [FLAC]\02 - Lokomotive.wav
Peak level 98.1 %
Track quality 100.0 %
Test CRC B3E76E90
Copy CRC B3E76E90
Copy OK
Track 3
Filename C:\Alexander von Schlippenbach - Schlippenbach Plays Monk (1996) [FLAC]\03 - Skippy.wav
Peak level 98.9 %
Track quality 100.0 %
Test CRC 8794FADE
Copy CRC 8794FADE
Copy OK
Track 4
Filename C:\Alexander von Schlippenbach - Schlippenbach Plays Monk (1996) [FLAC]\04 - Off Minor.wav
Peak level 97.0 %
Track quality 100.0 %
Test CRC F44AAC95
Copy CRC F44AAC95
Copy OK
Track 5
Filename C:\Alexander von Schlippenbach - Schlippenbach Plays Monk (1996) [FLAC]\05 - Let's Cool One.wav
Peak level 98.0 %
Track quality 100.0 %
Test CRC 5148D930
Copy CRC 5148D930
Copy OK
Track 6
Filename C:\Alexander von Schlippenbach - Schlippenbach Plays Monk (1996) [FLAC]\06 - Pannonica.wav
Peak level 85.3 %
Track quality 100.0 %
Test CRC E55175AC
Copy CRC E55175AC
Copy OK
Track 7
Filename C:\Alexander von Schlippenbach - Schlippenbach Plays Monk (1996) [FLAC]\07 - Evidence.wav
Peak level 100.0 %
Track quality 100.0 %
Test CRC 8D66A36E
Copy CRC 8D66A36E
Copy OK
Track 8
Filename C:\Alexander von Schlippenbach - Schlippenbach Plays Monk (1996) [FLAC]\08 - Coming on the Hudson.wav
Peak level 99.4 %
Track quality 100.0 %
Test CRC 5B426952
Copy CRC 5B426952
Copy OK
Track 9
Filename C:\Alexander von Schlippenbach - Schlippenbach Plays Monk (1996) [FLAC]\09 - Work.wav
Peak level 100.0 %
Track quality 100.0 %
Test CRC F69ADCED
Copy CRC F69ADCED
Copy OK
Track 10
Filename C:\Alexander von Schlippenbach - Schlippenbach Plays Monk (1996) [FLAC]\10 - Ruby My Dear.wav
Peak level 90.9 %
Track quality 100.0 %
Test CRC 1FD50E96
Copy CRC 1FD50E96
Copy OK
Track 11
Filename C:\Alexander von Schlippenbach - Schlippenbach Plays Monk (1996) [FLAC]\11 - Trinkle Tinkle.wav
Peak level 99.0 %
Track quality 99.9 %
Test CRC 41EE0953
Copy CRC 41EE0953
Copy OK
Track 12
Filename C:\Alexander von Schlippenbach - Schlippenbach Plays Monk (1996) [FLAC]\12 - 'Round about Midnight.wav
Peak level 99.3 %
Track quality 100.0 %
Test CRC AC56AA11
Copy CRC AC56AA11
Copy OK
Track 13
Filename C:\Alexander von Schlippenbach - Schlippenbach Plays Monk (1996) [FLAC]\13 - Bolivar Blues.wav
Peak level 97.8 %
Track quality 100.0 %
Test CRC C1298941
Copy CRC C1298941
Copy OK
Track 14
Filename C:\Alexander von Schlippenbach - Schlippenbach Plays Monk (1996) [FLAC]\14 - Light Blue.wav
Peak level 98.0 %
Track quality 100.0 %
Test CRC 9CDAFED9
Copy CRC 9CDAFED9
Copy OK
No errors occurred
End of status report

Alexander von Schlippenbach, piano
Ino Nobuyoshi, bass
Sunny Murray, drums
Приватный:
Нет (DHT включён)
Размер:
343.99 Мб (360,700,384 байт) » файлов: 22
Участники:
0 раздают, 0 качают (0 участников всего)
Внешние участники:
3 раздают, 1 качают (4 участников всего) [ Обновить ]
No seeders - write a personal message to user M0p94ok. Нет сидеров - пишите личное сообщение пользователю M0p94ok.
05:02
51
Нет комментариев. Ваш будет первым!