Поиск

(Avant-Garde) World Saxophone Quartet - Moving Right Along - 1993, APE (image+.cue), lossless

(Avant-Garde) World Saxophone Quartet - Moving Right Along - 1993, APE (image+.cue), lossless
Треклист:
World Saxophone Quartet - Moving Right Along
Жанр: Avant-Garde
Год выпуска диска: 1993
Производитель диска: Black Saint-Italy
Аудио кодек: APE
Тип рипа: image+.cue
Битрейт аудио: lossless
Продолжительность: 61:03
Трэклист:
1 Antithesis/ Person 7:11
2 Baba 2/ Bluiett 4:34
3 N.T./ Bluiett 4:10
4 Astral Travels/ Bluiett 1:15
5 Land of Mystery/ Bluiett 4:24
6 Movin' On/ Murray 6:15
7 Amazing Grace, Pt. I/ Newton 4:29
8 Giant Steps/ Coltrane 2:59
9 Urban/ Lake 6:01
10 Sharrod/ Person 4:08
11 M.I.L.D./ Lake 6:24
12 Lightning and Thunder/ Lake 3:51
13 Amazing Grace, Pt. II/ Newton 5:22
Hamiet Bluiett- Clarinet, Arranger, Composer, Sax (Baritone), Producer, Liner Notes, Contralto Clarinet
Oliver Lake- Sax (Alto), Sax (Soprano)
David Murray- Clarinet (Bass), Sax (Tenor)
Eric Person- Sax (Alto), Sax (Soprano)
James Spaulding- Sax (Alto)
Доп. информация: Оригинал из собрания Дмитрия Д.(Одесса)
 
Отчёт EAC об извлечении
Exact Audio Copy V0.99 prebeta 3 from 28. July 2007
Отчёт EAC об извлечении, выполненном 4. ноября 2008, 21:33
World Saxophone Quartet / Moving Right Along
Дисковод: Optiarc DVD RW AD-7203A Adapter: 0 ID: 1
Режим чтения : Достоверность
Использование точного потока : Да
Отключение кэша аудио : Да
Использование указателей C2 : Нет
Коррекция смещения при чтении : 48
Способность читать области Lead-in и Lead-out : Нет
Заполнение пропущенных сэмплов тишиной : Да
Удаление блоков с тишиной в начале и конце : Нет
При вычислениях CRC использовались нулевые сэмплы : Да
Интерфейс : Установленный внешний ASPI-интерфейс
Выходной формат : Monkey's Audio Lossless Encoder v3.99 DLL
Формат сэмплов : Normal Lossless Compression
TOC извлечённого CD
Трек | Старт | Длительность | Начальный сектор | Конечный сектор
---------------------------------------------------------------------
1 | 0:00.32 | 7:11.50 | 32 | 32406
2 | 7:12.07 | 4:34.50 | 32407 | 53006
3 | 11:46.57 | 4:10.00 | 53007 | 71756
4 | 15:56.57 | 1:15.38 | 71757 | 77419
5 | 17:12.20 | 4:24.12 | 77420 | 97231
6 | 21:36.32 | 6:15.13 | 97232 | 125369
7 | 27:51.45 | 4:29.62 | 125370 | 145606
8 | 32:21.32 | 2:59.13 | 145607 | 159044
9 | 35:20.45 | 6:01.62 | 159045 | 186181
10 | 41:22.32 | 4:08.00 | 186182 | 204781
11 | 45:30.32 | 6:24.38 | 204782 | 233619
12 | 51:54.70 | 3:51.37 | 233620 | 250981
13 | 55:46.32 | 5:22.00 | 250982 | 275131
Характеристики диапазона извлечения и сообщения об ошибках
Выбранный диапазон
Имя файла C:\Documents and Settings\1\Рабочий стол\World Saxophone Quartet - Moving Right Along.ape
Пиковый уровень 78.2 %
Качество диапазона 100.0 %
CRC теста F7C5C526
CRC копии F7C5C526
Копирование... OK
Ошибок не произошло
AccurateRip: сводка
Трек 1 нет в базе данных
Трек 2 нет в базе данных
Трек 3 нет в базе данных
Трек 4 нет в базе данных
Трек 5 нет в базе данных
Трек 6 нет в базе данных
Трек 7 нет в базе данных
Трек 8 нет в базе данных
Трек 9 нет в базе данных
Трек 10 нет в базе данных
Трек 11 нет в базе данных
Трек 12 нет в базе данных
Трек 13 нет в базе данных
Ни одного трека нет в базе AccurateRip
Конец отчёта
World Saxophone Quartet - Requim For Julius
Приватный:
Нет (DHT включён)
Размер:
289.64 Мб (303,711,980 байт) » файлов: 10
Участники:
0 раздают, 0 качают (0 участников всего)
Внешние участники:
--- [ Обновить ]
No seeders - write a personal message to user M0p94ok. Нет сидеров - пишите личное сообщение пользователю M0p94ok.
05:01
59
Нет комментариев. Ваш будет первым!