Поиск

(Modern Creative, Soundtrack) Phillip Johnston's BIG TROUBLE - The Unknown - 1994, FLAC (image+.cue), lossless

(Modern Creative, Soundtrack) Phillip Johnston's BIG TROUBLE - The Unknown - 1994, FLAC (image+.cue), lossless
Треклист:
Phillip Johnston's BIG TROUBLE - The Unknown
Жанр: Modern Creative, Soundtrack
Год выпуска диска: 1994
Производитель диска: Japan (AVANT)
Аудио кодек: FLAC
Тип рипа: image+.cue
Битрейт аудио: lossless
Продолжительность: 0:52:56
Трэклист:
1. Men's Hands
2. Putting Crazy Ideas in Her Head Again
3. 20 Gypsy Souls Are Kept Out of Hell
4. There Is Nothing I Will Not Do to Own Her
5. But You Forget.......
6. What Is the Price for Your Silence for My Past?
7. A Toast But It's Strange
8. No.....Not Sick
9. It Was Just Something in Here That Stung Like the Lash of a Whip
10. Nothing Will Happen
11. Hate Death Hate Love
Доп. информация:
Phillip Johnston's Big Trouble:
Phillip Johnston (soprano & alto saxophone),
Bob Debellis (baritone saxophone, bass clarinet, flute, alto flute),
Steve Swell (trombone),
Joe Ruddick (piano, keyboards),
David Hofstra (bass),
Kevin Norton (drums, vibraphone, percussion).
Credits:
Jon Rosenberg Mixing, Engineer
Kazunori Sugiyama Associate Producer
John Zorn Executive Producer
Появление Mark Dresser - The Cabinet of Dr. Caligari пробудило во мне старое желание познакомить форум с Филлипом Джонстоном.
Наверное можно поспорить о его способностях музыканта, но надеюсь, что композиторским талантам возразить не сможете.
Цвет ньюйоркского даунтауна на подтанцовках.
Попробую в будущем продолжить тему ФДж. Если кто нибудь набъётся в помощники - возражать не стану.
 
статейка на английском - Seth Rogovoy
 
AMG by William York
The Unknown is saxophonist/composer Phillip Johnston's soundtrack to the 1927 silent film of the same name. As with much of Johnston's other work, the music here is a witty, often changing mix of sounds and styles from various eras. Appropriately, there is an emphasis on various film music archetypes, although not just from the silent film era, but from more modern times, too. The tracks weave in and out of frantic, polka-driven chase-scene themes, genteel waltzes, nostalgic parlor-room piano sections, sultry noir-jazz passages, and more. Johnston also adds in more modern elements, from dissonant horn harmonies and free-leaning improvisation to a few rock-oriented rhythms and even some electronic/synthesizer touches. As a result, the music often feels familiar and hard to place at the same time. Johnston knows how to evoke a wide range of moods, whether it be suspense, melancholy, or something less easy define, and the main melodic themes are memorable as well as cleverly arranged each time they recur. This music holds up just fine without the visuals; one only wishes that the actual performances were a little more impassioned and less restrained than they are in places.
 
eac log
Exact Audio Copy V0.99 prebeta 3 from 28. July 2007
EAC extraction logfile from 8. November 2008, 15:26
Phillip Johnston's BIG TROUBLE / The Unknown
Used drive : HL-DT-STDVDRAM GSA-4165B Adapter: 1 ID: 0
Read mode : Secure
Utilize accurate stream : Yes
Defeat audio cache : Yes
Make use of C2 pointers : No
Read offset correction : 667
Overread into Lead-In and Lead-Out : No
Fill up missing offset samples with silence : Yes
Delete leading and trailing silent blocks : No
Null samples used in CRC calculations : No
Used interface : Native Win32 interface for Win NT & 2000
Used output format : User Defined Encoder
Selected bitrate : 768 kBit/s
Quality : High
Add ID3 tag : No
Command line compressor : C:\Program Files\Exact Audio Copy\FLAC\FLAC.EXE
Additional command line options : -6 -V -T "ARTIST=%a" -T "TITLE=%t" -T "ALBUM=%g" -T "DATE=%y" -T "TRACKNUMBER=%n" -T "GENRE=%m" -T "COMMENT=%e" %s -o %d
TOC of the extracted CD
Track | Start | Length | Start sector | End sector
---------------------------------------------------------
1 | 0:00.00 | 8:02.58 | 0 | 36207
2 | 8:02.58 | 5:06.07 | 36208 | 59164
3 | 13:08.65 | 5:24.30 | 59165 | 83494
4 | 18:33.20 | 8:09.48 | 83495 | 120217
5 | 26:42.68 | 4:09.65 | 120218 | 138957
6 | 30:52.58 | 4:26.50 | 138958 | 158957
7 | 35:19.33 | 3:02.32 | 158958 | 172639
8 | 38:21.65 | 3:08.05 | 172640 | 186744
9 | 41:29.70 | 4:09.63 | 186745 | 205482
10 | 45:39.58 | 2:28.60 | 205483 | 216642
11 | 48:08.43 | 4:48.27 | 216643 | 238269
Range status and errors
Selected range
Filename F:\DATA\Music\Torrent\0_My_Music\Phillip Johnston's BIG TROUBLE - The Unknown (1994)\Phillip Johnston's BIG TROUBLE - The Unknown (1994).wav
Peak level 97.7 %
Range quality 100.0 %
Copy CRC 7B6ECD05
Copy OK
No errors occurred
AccurateRip summary
Track 1 not present in database
Track 2 not present in database
Track 3 not present in database
Track 4 not present in database
Track 5 not present in database
Track 6 not present in database
Track 7 not present in database
Track 8 not present in database
Track 9 not present in database
Track 10 not present in database
Track 11 not present in database
None of the tracks are present in the AccurateRip database
End of status report
Приватный:
Нет (DHT включён)
Размер:
260.84 Мб (273,515,206 байт) » файлов: 5
Участники:
0 раздают, 0 качают (0 участников всего)
Внешние участники:
1 раздают, 0 качают (1 участников всего) [ Обновить ]
No seeders - write a personal message to user M0p94ok. Нет сидеров - пишите личное сообщение пользователю M0p94ok.
05:01
112
Нет комментариев. Ваш будет первым!