Поиск

(Jazz) David Murray- Jug-A-Lug - 1995, FLAC (image+.cue), lossless

(Jazz) David Murray- Jug-A-Lug - 1995, FLAC (image+.cue), lossless
Треклист:
David Murray - Jug-A-Lug- 1995, FLAC (image+.cue), lossless
Жанр: Jazz
Год выпуска диска: 1995
Производитель диска: DIW - japan
Аудио кодек: FLAC
Тип рипа: image+.cue
Битрейт аудио: lossless
Продолжительность: 61:37
Трэклист:
1. JUG-A-LUG (David Murray)
2. ORNETTE (Kahil El'Zabar)
3. THE DESEGREGATION OF OUR CHILDREN (David Murray)
4. A.B. LIB (Toby Williams)
5. ACOUSTIC OCTO FUNK (David Murray)
6. 18-H (Bobby Broom)
7. I DONT WANT IT (David Murray)
8. MORNING SONG (David Murray)
Состав:
DAVID MURAY, tenor sax, bass clarinet
ROBERT IRVING III, synthesizer, organ
BOBBY BROOM, guitar
DARYL THOMPSON, guitar(8)
DARRYL JONES, bass
TOBY WILLIAMS, drums
KAHIL EL'ZABAR, percussion
OLU DARA, cornet(2)
 
EAC log
Exact Audio Copy V0.99 prebeta 4 from 23. January 2008
Отчёт EAC об извлечении, выполненном 1. ноября 2008, 20:26
David Murray / Jug-A-Lug
Дисковод: ASUS DRW-1612BL Adapter: 2 ID: 0
Режим чтения : Достоверность
Использование точного потока : Да
Отключение кэша аудио : Да
Использование указателей C2 : Нет
Коррекция смещения при чтении : 6
Способность читать области Lead-in и Lead-out : Нет
Заполнение пропущенных сэмплов тишиной : Да
Удаление блоков с тишиной в начале и конце : Нет
При вычислениях CRC использовались нулевые сэмплы : Да
Интерфейс : Установленный внешний ASPI-интерфейс
Выходной формат : Внутренние WAV-операции
Формат сэмплов : 44.100 Гц; 16 бит; стерео
TOC извлечённого CD
Трек | Старт | Длительность | Начальный сектор | Конечный сектор
---------------------------------------------------------------------
1 | 0:00.00 | 6:58.30 | 0 | 31379
2 | 6:58.30 | 9:00.65 | 31380 | 71944
3 | 15:59.20 | 10:04.22 | 71945 | 117266
4 | 26:03.42 | 5:49.13 | 117267 | 143454
5 | 31:52.55 | 6:40.35 | 143455 | 173489
6 | 38:33.15 | 6:40.19 | 173490 | 203508
7 | 45:13.34 | 9:27.18 | 203509 | 246051
8 | 54:40.52 | 6:56.40 | 246052 | 277291
Характеристики диапазона извлечения и сообщения об ошибках
Выбранный диапазон
Имя файла D:\Музыка\Записи\Новая папка\David Murray - Jug-A-Lug.wav
Пиковый уровень 99.8 %
Качество диапазона 100.0 %
CRC копии E53E5E2D
Копирование... OK
Ошибок не произошло
AccurateRip: сводка
Трек 1 нет в базе данных
Трек 2 нет в базе данных
Трек 3 нет в базе данных
Трек 4 нет в базе данных
Трек 5 нет в базе данных
Трек 6 нет в базе данных
Трек 7 нет в базе данных
Трек 8 нет в базе данных
Ни одного трека нет в базе AccurateRip
Конец отчёта
Приватный:
Нет (DHT включён)
Размер:
394.50 Мб (413,658,293 байт) » файлов: 5
Участники:
0 раздают, 1 качают (1 участников всего)
Внешние участники:
1 раздают, 0 качают (1 участников всего) [ Обновить ]
Скорость:
82.24 Кб/c 0/c
No seeders - write a personal message to user M0p94ok. Нет сидеров - пишите личное сообщение пользователю M0p94ok.
05:00
66
Нет комментариев. Ваш будет первым!