Поиск

(Jazz) Bill Dixon with Matthias Bauer, Klaus Koch, Tony Oxley -Berlin Abbozzi 1999, FLAC (tracks), lossless

Треклист:



Bill Dixon with Matthias Bauer, Klaus Koch, Tony Oxley
Berlin Abbozzi
Жанр: jazz
Год выпуска: 1999
Формат: FLAC (tracks)
Битрейт аудио: lossless
Продолжительность 1:18:41
Источник: ed2k
Bill Dixon - trumpet,flugelhorn
Tony Oxley - drums
Matthias Bauer
Klaus Koch - double bass

tracks

1. Currents
2. Open Quiet / The Orange Bell
3. Acrolithes


 
auCDtect
auCDtect: CD records authenticity detector, version 0.8.2
Copyright (c) 2004 Oleg Berngardt. All rights reserved.
Copyright (c) 2004 Alexander Djourik. All rights reserved.
------------------------------------------------------------
Processing file: [03 - Acrolithes .wav]
Detected average hi-boundary frequency: 2.009830e+004 Hz
Detected average lo-boundary frequency: 1.234760e+004 Hz
Detected average hi-cut frequency: 2.179435e+004 Hz
Detected average lo-cut frequency: 1.016298e+004 Hz
Maximum probablis boundary frequency: 2.143400e+004 Hz
Coefficient of nonlinearity of a phase: 8.174582e-001
First order smothness: 3.751728e-001
Second order smothness: 4.899088e-001
------------------------------------------------------------
This track looks like CDDA with probability 99%

 
.accurip
[CUETools log; Date: 7/3/2012 08:28:04 AM; Version: 2.1.2a]
[CTDB TOCID: Vv3qlm4GfEk3kC5G6a6.k9o.2N0-] disk not present in database.
[AccurateRip ID: 000b23f0-00255653-17127103] found.
Track [ CRC ] Status
01 [9aa7bfe0] (0/2) No match
02 [97cb7c6d] (0/2) No match
03 [e2346ab4] (0/2) No match
Offsetted by 6:
01 [bda6fb3a] (2/2) Accurately ripped
02 [b34f3bdc] (2/2) Accurately ripped
03 [2f166b4a] (2/2) Accurately ripped
Track Peak [ CRC32 ] [W/O NULL]
-- 96.5 [06C25F5A] [1B2E69E0]
01 93.2 [CE4C0980] [15D5F94B]
02 96.5 [3DF4C125] [42338D29]
03 94.3 [986CE7A9] [B7E10971]
другие релизы
Приватный:
Нет (DHT включён)
Размер:
443.69 Мб (465,247,540 байт) » файлов: 14
Участники:
0 раздают, 0 качают (0 участников всего)
Внешние участники:
3 раздают, 1 качают (4 участников всего) [ Обновить ]
No seeders - write a personal message to user M0p94ok. Нет сидеров - пишите личное сообщение пользователю M0p94ok.
04:59
65
Нет комментариев. Ваш будет первым!