Поиск

(Free Jazz) Alexander Von Schlippenbach Trio - Pakistani Pomade - 1972, FLAC (tracks+.cue)

Треклист:
Alexander Von Schlippenbach Trio - Pakistani Pomade
Жанр: Free Jazz
Год выпуска диска: 1972
Производитель диска: Canada
Аудио кодек: FLAC
Тип рипа: tracks
Битрейт аудио: 780
Продолжительность: 1:06:22
Трэклист:
1. Sun-Luck Night-Rain
2. Butaki Sisters
3. Little Yellow, A - (Incl Two Seconds Monk)
4. Ein Husten Fur Karl Valentin
5. Pakistani Pomade
6. Von "G" AB
7. Moonbeef
8. Kleine Nulle, Evergreen
9. Pakistani Alternate #1
10. Pakistani Alternate #2
11. Pakistani Alternate #3
12. Pakistani Alternate #4
Доп. информация: Это моя первая раздача. Буду рад замечаниям.
 
Отчёт EAC
Exact Audio Copy V0.99 prebeta 4 from 23. January 2008
Отчёт EAC об извлечении, выполненном 7. ноября 2008, 15:33
Alexander Von Schlippenbach Trio / Pakistani Pomade
Дисковод: PLEXTOR DVD-ROM PX-130A Adapter: 0 ID: 0
Режим чтения : Достоверность
Использование точного потока : Да
Отключение кэша аудио : Да
Использование указателей C2 : Нет
Коррекция смещения при чтении : 738
Способность читать области Lead-in и Lead-out : Нет
Заполнение пропущенных сэмплов тишиной : Да
Удаление блоков с тишиной в начале и конце : Нет
При вычислениях CRC использовались нулевые сэмплы : Да
Интерфейс : Встроенный Win32-интерфейс для Win NT/2000
Обработка зазоров : Добавлено к предыдущему треку
Выходной формат : Пользовательский кодировщик
Выбранный битрейт : 768 kBit/s
Качество : Высокий
Добавление ID3-тэга : Нет
Утилита сжатия : C:\Program Files\Exact Audio Copy\Flac\flac.exe
Дополнительные параметры : -V -8 -T "artist=%a" -T "title=%t" -T "album=%g" -T "date=%y" -T "tracknumber=%n" -T "genre=%m" %s
TOC извлечённого CD
Трек | Старт | Длительность | Начальный сектор | Конечный сектор
---------------------------------------------------------------------
1 | 0:00.00 | 5:22.49 | 0 | 24198
2 | 5:22.49 | 9:07.65 | 24199 | 65288
3 | 14:30.39 | 7:09.08 | 65289 | 97471
4 | 21:39.47 | 3:22.58 | 97472 | 112679
5 | 25:02.30 | 6:02.42 | 112680 | 139871
6 | 31:04.72 | 0:52.37 | 139872 | 143808
7 | 31:57.34 | 10:05.17 | 143809 | 189200
8 | 42:02.51 | 0:49.15 | 189201 | 192890
9 | 42:51.66 | 11:35.16 | 192891 | 245031
10 | 54:27.07 | 0:52.62 | 245032 | 248993
11 | 55:19.69 | 7:00.68 | 248994 | 280561
12 | 62:20.62 | 4:01.40 | 280562 | 298676
Трек 1
Имя файла N:\AUDIO CD\! NEW\Alexander Von Schlippenbach Trio - Pakistani Pomade\01 Sun-Luck Night-Rain.wav
Длина предзазора 0:00:02.00
Пиковый уровень 42.0 %
Качество трека 100.0 %
CRC теста 0E11EA81
CRC копии 0E11EA81
Трек не обнаружен в базе AccurateRip
Копирование... OK
Трек 2
Имя файла N:\AUDIO CD\! NEW\Alexander Von Schlippenbach Trio - Pakistani Pomade\02 Butaki Sisters.wav
Длина предзазора 0:00:02.41
Пиковый уровень 48.1 %
Качество трека 100.0 %
CRC теста A6672FC9
CRC копии A6672FC9
Трек не обнаружен в базе AccurateRip
Копирование... OK
Трек 3
Имя файла N:\AUDIO CD\! NEW\Alexander Von Schlippenbach Trio - Pakistani Pomade\03 A Little Yellow (Including Two Seconds Monk).wav
Длина предзазора 0:00:02.64
Пиковый уровень 43.1 %
Качество трека 100.0 %
CRC теста 1C410D1B
CRC копии 1C410D1B
Трек не обнаружен в базе AccurateRip
Копирование... OK
Трек 4
Имя файла N:\AUDIO CD\! NEW\Alexander Von Schlippenbach Trio - Pakistani Pomade\04 Ein Husten fьr Karl Valentin.wav
Длина предзазора 0:00:05.66
Пиковый уровень 41.4 %
Качество трека 100.0 %
CRC теста 31D0370F
CRC копии 31D0370F
Трек не обнаружен в базе AccurateRip
Копирование... OK
Трек 5
Имя файла N:\AUDIO CD\! NEW\Alexander Von Schlippenbach Trio - Pakistani Pomade\05 Pakistani Pomade.wav
Длина предзазора 0:00:02.17
Пиковый уровень 46.6 %
Качество трека 100.0 %
CRC теста A9759F60
CRC копии A9759F60
Трек не обнаружен в базе AccurateRip
Копирование... OK
Трек 6
Имя файла N:\AUDIO CD\! NEW\Alexander Von Schlippenbach Trio - Pakistani Pomade\06 Von 'G' Ab 403-418.wav
Длина предзазора 0:00:01.46
Пиковый уровень 38.1 %
Качество трека 100.0 %
CRC теста E8C02FCF
CRC копии E8C02FCF
Трек не обнаружен в базе AccurateRip
Копирование... OK
Трек 7
Имя файла N:\AUDIO CD\! NEW\Alexander Von Schlippenbach Trio - Pakistani Pomade\07 Moonbeef.wav
Длина предзазора 0:00:01.36
Пиковый уровень 45.7 %
Качество трека 100.0 %
CRC теста F1654FF2
CRC копии F1654FF2
Трек не обнаружен в базе AccurateRip
Копирование... OK
Трек 8
Имя файла N:\AUDIO CD\! NEW\Alexander Von Schlippenbach Trio - Pakistani Pomade\08 Kleine Nьlle, Evergreen.wav
Длина предзазора 0:00:01.31
Пиковый уровень 44.5 %
Качество трека 100.0 %
CRC теста CC078F98
CRC копии CC078F98
Трек не обнаружен в базе AccurateRip
Копирование... OK
Трек 9
Имя файла N:\AUDIO CD\! NEW\Alexander Von Schlippenbach Trio - Pakistani Pomade\09 Pakistani alternate #1.wav
Длина предзазора 0:00:05.35
Пиковый уровень 46.0 %
Качество трека 100.0 %
CRC теста A9C69EEF
CRC копии A9C69EEF
Трек не обнаружен в базе AccurateRip
Копирование... OK
Трек 10
Имя файла N:\AUDIO CD\! NEW\Alexander Von Schlippenbach Trio - Pakistani Pomade\10 Pakistani alternate #2.wav
Длина предзазора 0:00:03.10
Пиковый уровень 38.5 %
Качество трека 100.0 %
CRC теста E593C2EA
CRC копии E593C2EA
Трек не обнаружен в базе AccurateRip
Копирование... OK
Трек 11
Имя файла N:\AUDIO CD\! NEW\Alexander Von Schlippenbach Trio - Pakistani Pomade\11 Pakistani alternate #3.wav
Длина предзазора 0:00:02.38
Пиковый уровень 44.6 %
Качество трека 100.0 %
CRC теста D0C6AD7C
CRC копии D0C6AD7C
Трек не обнаружен в базе AccurateRip
Копирование... OK
Трек 12
Имя файла N:\AUDIO CD\! NEW\Alexander Von Schlippenbach Trio - Pakistani Pomade\12 Pakistani alternate #4.wav
Длина предзазора 0:00:02.62
Пиковый уровень 43.7 %
Качество трека 100.0 %
CRC теста D5302AD0
CRC копии D5302AD0
Трек не обнаружен в базе AccurateRip
Копирование... OK
Ни одного трека нет в базе AccurateRip
Ошибок не произошло
Конец отчёта
Вообще, диск выпущен на лэйбле Atavistic. Изначально пластинка была издана на FMP.
Обзоры диска:
http://www.allmusic.com/cg/amg.dll?p=amg&sql=10:fcfrxqqgldae
http://www.dustedmagazine.com/reviews/868
В состав Alexander Von Schlippenbach Trio входят:
Evan Parker - Soprano + Tenorsax
Alexander Von Schlippenbach - Piano
Paul Lovens - Drums
p.s.: 16 декабря Александр Вон Шлиппенбах со своим трио будет в Москве, в КЦ ДОМ (!)
Приватный:
Нет (DHT включён)
Размер:
334.45 Мб (350,697,564 байт) » файлов: 14
Участники:
0 раздают, 0 качают (0 участников всего)
Внешние участники:
2 раздают, 1 качают (3 участников всего) [ Обновить ]
No seeders - write a personal message to user M0p94ok. Нет сидеров - пишите личное сообщение пользователю M0p94ok.
04:59
70
Нет комментариев. Ваш будет первым!