Вы используете незарегистрированную версию компонента "Вкладки"!

Поиск

(Modern Jazz) Billy Fox's Blackbirds & Bullets - Dulces - (2006)2010, FLAC (tracks+.cue), lossless

(Modern Jazz) Billy Fox's Blackbirds & Bullets - Dulces - (2006)2010, FLAC (tracks+.cue), lossless
Треклист:
Billy Fox's Blackbirds & Bullets / Dulces
Жанр: Modern Jazz
Страна-производитель диска: Portugal
Год издания: (2006)2010
Издатель (лейбл): Cleen Feed
Номер по каталогу: CF204CD
Страна: USA
Аудиокодек: FLAC (*.flac)
Тип рипа: tracks+.cue
Битрейт аудио: lossless
Продолжительность: 47:13.
Источник (релизер): clustert
Наличие сканов в содержимом раздачи: да
Треклист:
01. Girl Cheese Sandwich 5:13
02. Go Pocket Pickles! 7:20
03. Deva Dasi 10:49
04. Tatsin 7:23
05. Elisha & The She Bears 11:52
06. E Ki E Sundaro Shobha 4:34
 
Лог создания рипа
Exact Audio Copy V1.0 beta 3 from 29. August 2011
Отчёт EAC об извлечении, выполненном 14. марта 2013, 17:28
Billy Fox's Blackbirds & Bullets / Dulces
Дисковод: ASUS DVD-E616A3T Adapter: 5 ID: 0
Режим чтения : Достоверность
Использование точного потока : Да
Отключение кэша аудио : Да
Использование указателей C2 : Нет
Коррекция смещения при чтении : 6
Способность читать области Lead-in и Lead-out : Нет
Заполнение пропущенных сэмплов тишиной : Да
Удаление блоков с тишиной в начале и конце : Нет
При вычислениях CRC использовались нулевые сэмплы : Да
Интерфейс : Встроенный Win32-интерфейс для Win NT/2000
Обработка зазоров : Добавлено к предыдущему треку
Выходной формат : Пользовательский кодировщик
Выбранный битрейт : 128 kBit/s
Качество : Высокий
Добавление ID3-тега : Нет
Утилита сжатия : C:\Program Files\Exact Audio Copy\Flac\flac.exe
Дополнительные параметры : -V -8 -T "Genre=%genre%" -T "Artist=%artist%" -T "Title=%title%" -T "Album=%albumtitle%" -T "Date=%year%" -T "Tracknumber=%tracknr%" -T "Comment=EAC1.0b2 FLAC -8" %source%
TOC извлечённого CD
Трек | Старт | Длительность | Начальный сектор | Конечный сектор
---------------------------------------------------------------------
1 | 0:00.00 | 5:13.46 | 0 | 23520
2 | 5:13.46 | 7:20.31 | 23521 | 56551
3 | 12:34.02 | 10:49.17 | 56552 | 105243
4 | 23:23.19 | 7:23.45 | 105244 | 138513
5 | 30:46.64 | 11:52.22 | 138514 | 191935
6 | 42:39.11 | 4:34.18 | 191936 | 212503
Трек 1
Имя файла R:\Раздача\Billy Fox's Blackbirds & Bullets - 2010 - Dulces\01 Girl Cheese Sandwich.wav
Длина предзазора 0:00:02.00
Пиковый уровень 100.0 %
Скорость извлечения 1.9 X
Качество трека 100.0 %
CRC теста CAE65BA7
CRC копии CAE65BA7
Точное извлечение (достоверность 1) [D55550AF] (AR v1)
Копирование... OK
Трек 2
Имя файла R:\Раздача\Billy Fox's Blackbirds & Bullets - 2010 - Dulces\02 Go Pocket Pickles!.wav
Длина предзазора 0:00:01.00
Пиковый уровень 100.0 %
Скорость извлечения 2.2 X
Качество трека 100.0 %
CRC теста F0ED7EDF
CRC копии F0ED7EDF
Точное извлечение (достоверность 1) [C9E41937] (AR v1)
Копирование... OK
Трек 3
Имя файла R:\Раздача\Billy Fox's Blackbirds & Bullets - 2010 - Dulces\03 Deva Dasi.wav
Длина предзазора 0:00:02.00
Пиковый уровень 100.0 %
Скорость извлечения 2.6 X
Качество трека 100.0 %
CRC теста 7DF72352
CRC копии 7DF72352
Точное извлечение (достоверность 1) [FBE7E4A7] (AR v1)
Копирование... OK
Трек 4
Имя файла R:\Раздача\Billy Fox's Blackbirds & Bullets - 2010 - Dulces\04 Tatsin.wav
Длина предзазора 0:00:02.00
Пиковый уровень 100.0 %
Скорость извлечения 2.9 X
Качество трека 100.0 %
CRC теста D191AE3E
CRC копии D191AE3E
Точное извлечение (достоверность 1) [75347AAC] (AR v1)
Копирование... OK
Трек 5
Имя файла R:\Раздача\Billy Fox's Blackbirds & Bullets - 2010 - Dulces\05 Elisha & The She Bears.wav
Длина предзазора 0:00:02.00
Пиковый уровень 100.0 %
Скорость извлечения 3.2 X
Качество трека 100.0 %
CRC теста C9BEF2D3
CRC копии C9BEF2D3
Точное извлечение (достоверность 1) [ED383BD6] (AR v1)
Копирование... OK
Трек 6
Имя файла R:\Раздача\Billy Fox's Blackbirds & Bullets - 2010 - Dulces\06 E Ki E Sundaro Shobha.wav
Длина предзазора 0:00:02.00
Пиковый уровень 95.5 %
Скорость извлечения 2.6 X
Качество трека 99.9 %
CRC теста AE8358E4
CRC копии AE8358E4
Точное извлечение (достоверность 1) [695371CE] (AR v1)
Копирование... OK
Все треки извлечены точно
Ошибок не произошло
Конец отчёта
==== Контрольная сумма отчёта 5775B5DF2BA7F8DC75599E86AFDB36ED1EF1535BAA2495B603B5E16F29CE5683 ====
 
Содержание индексной карты (.CUE)
REM GENRE Jazz
REM DISCID 4A0B1106
REM COMMENT "ExactAudioCopy v1.0b3"
PERFORMER " Billy Fox's Blackbirds & Bullets"
TITLE "Dulces"
FILE "01 Girl Cheese Sandwich.wav" WAVE
TRACK 01 AUDIO
TITLE "Girl Cheese Sandwich"
PERFORMER " Billy Fox's Blackbirds & Bullets"
FLAGS DCP
INDEX 01 00:00:00
TRACK 02 AUDIO
TITLE "Go Pocket Pickles!"
PERFORMER " Billy Fox's Blackbirds & Bullets"
FLAGS DCP
INDEX 00 05:12:46
FILE "02 Go Pocket Pickles!.wav" WAVE
INDEX 01 00:00:00
TRACK 03 AUDIO
TITLE "Deva Dasi"
PERFORMER " Billy Fox's Blackbirds & Bullets"
FLAGS DCP
INDEX 00 07:18:31
FILE "03 Deva Dasi.wav" WAVE
INDEX 01 00:00:00
TRACK 04 AUDIO
TITLE "Tatsin"
PERFORMER " Billy Fox's Blackbirds & Bullets"
FLAGS DCP
INDEX 00 10:47:17
FILE "04 Tatsin.wav" WAVE
INDEX 01 00:00:00
TRACK 05 AUDIO
TITLE "Elisha & The She Bears"
PERFORMER " Billy Fox's Blackbirds & Bullets"
FLAGS DCP
INDEX 00 07:21:45
FILE "05 Elisha & The She Bears.wav" WAVE
INDEX 01 00:00:00
TRACK 06 AUDIO
TITLE "E Ki E Sundaro Shobha"
PERFORMER " Billy Fox's Blackbirds & Bullets"
FLAGS DCP
INDEX 00 11:50:22
FILE "06 E Ki E Sundaro Shobha.wav" WAVE
INDEX 01 00:00:00
 
Состав
Gary Pickard-soprano and alto sax
Miki Hirose-trumpet
Matt Parker-tenor sax
James Ilgenfritz-bass
Evan Mazunik-keys
Arei Sekiguchi-drums
Billy Fox-maracas
Julianne Carney-violin (track 3)
Any questions -> support@pro-jazz.com. По всем вопросам пишите -> support@pro-jazz.com
10:09
209
Нет комментариев. Ваш будет первым!