Вы используете незарегистрированную версию компонента "Вкладки"!

Поиск

(Free Jazz) Poly Breath Percussion Band (Shoji Hano, Tetsu Yamauchi, Megumu Nishino, Keizo Inoue) - P.B.2 Live - 1997, FLAC (tracks+.cue), lossless

(Free Jazz) Poly Breath Percussion Band (Shoji Hano, Tetsu Yamauchi, Megumu Nishino, Keizo Inoue) - P.B.2 Live - 1997, FLAC (tracks+.cue), lossless
Треклист:
Poly Breath Percussion Band / P.B.2 Live
Жанр: Free Jazz
Страна-производитель диска: Japan
Год издания: 1997
Издатель (лейбл): P.S.F. Records
Номер по каталогу: PSFD-92
Аудиокодек: FLAC (*.flac)
Тип рипа: tracks
Битрейт аудио: lossless
Продолжительность: 1:06:29
Источник (релизер): CD
Наличие сканов в содержимом раздачи: да
Треклист:
1. Hagishiri (9:23)
2. Lem (5:42)
3. Death Talking (17:49)
4. Snoring (13:54)
5. Somna Mbulism (19:50)
 
Лог создания рипа
Exact Audio Copy V1.0 beta 2 from 29. April 2011
EAC extraction logfile from 14. March 2013, 20:11
Poly Breath Percussion Band / P.B.2 Live
Used drive : Optiarc DVD RW AD-5280S Adapter: 1 ID: 1
Read mode : Secure
Utilize accurate stream : Yes
Defeat audio cache : Yes
Make use of C2 pointers : No
Read offset correction : 48
Overread into Lead-In and Lead-Out : No
Fill up missing offset samples with silence : Yes
Delete leading and trailing silent blocks : No
Null samples used in CRC calculations : Yes
Used interface : Native Win32 interface for Win NT & 2000
Gap handling : Appended to previous track
Used output format : User Defined Encoder
Selected bitrate : 128 kBit/s
Quality : High
Add ID3 tag : No
Command line compressor : C:\Program Files\FLAC\flac.exe
Additional command line options : -V -8 -T "Genre=%genre%" -T "Artist=%artist%" -T "Title=%title%" -T "Album=%albumtitle%" -T "Date=%year%" -T "Tracknumber=%tracknr%" -T "Comment=%comment%" %source%
TOC of the extracted CD
Track | Start | Length | Start sector | End sector
---------------------------------------------------------
1 | 0:00.00 | 9:23.63 | 0 | 42287
2 | 9:23.63 | 5:41.22 | 42288 | 67884
3 | 15:05.10 | 17:49.05 | 67885 | 148064
4 | 32:54.15 | 13:53.65 | 148065 | 210604
5 | 46:48.05 | 19:50.63 | 210605 | 299917
Track 1
Filename C:\Poly Breath Percussion Band (1997) - P.B.2 Live\01 - Hagishiri.wav
Pre-gap length 0:00:02.00
Peak level 99.3 %
Extraction speed 2.9 X
Track quality 100.0 %
Test CRC BACA723D
Copy CRC BACA723D
Track not present in AccurateRip database
Copy OK
Track 2
Filename C:\Poly Breath Percussion Band (1997) - P.B.2 Live\02 - Lem.wav
Pre-gap length 0:00:01.58
Peak level 99.3 %
Extraction speed 3.0 X
Track quality 99.9 %
Test CRC C2D25E94
Copy CRC C2D25E94
Track not present in AccurateRip database
Copy OK
Track 3
Filename C:\Poly Breath Percussion Band (1997) - P.B.2 Live\03 - Death Talking.wav
Pre-gap length 0:00:02.20
Peak level 99.3 %
Extraction speed 4.1 X
Track quality 100.0 %
Test CRC 72A57BF7
Copy CRC 72A57BF7
Track not present in AccurateRip database
Copy OK
Track 4
Filename C:\Poly Breath Percussion Band (1997) - P.B.2 Live\04 - Snoring.wav
Pre-gap length 0:00:03.00
Peak level 99.3 %
Extraction speed 4.9 X
Track quality 100.0 %
Test CRC E6BC6ECC
Copy CRC E6BC6ECC
Track not present in AccurateRip database
Copy OK
Track 5
Filename C:\Poly Breath Percussion Band (1997) - P.B.2 Live\05 - Somna Mbulism.wav
Pre-gap length 0:00:02.50
Peak level 99.3 %
Extraction speed 5.6 X
Track quality 100.0 %
Test CRC E782BB99
Copy CRC E782BB99
Track not present in AccurateRip database
Copy OK
None of the tracks are present in the AccurateRip database
No errors occurred
End of status report
==== Log checksum 9FDBB49EA8118914057E74182D3D6A15E957E7394AB070A9E2D5302282082D3F ====
 
Содержание индексной карты (.CUE)
REM GENRE Jazz
REM DATE 1997
REM DISCID 440F9E05
REM COMMENT "ExactAudioCopy v1.0b2"
PERFORMER "Poly Breath Percussion Band"
TITLE "P.B.2 Live"
FILE "01 - Hagishiri.wav" WAVE
TRACK 01 AUDIO
TITLE "Hagishiri"
PERFORMER "Poly Breath Percussion Band"
INDEX 01 00:00:00
TRACK 02 AUDIO
TITLE "Lem"
PERFORMER "Poly Breath Percussion Band"
INDEX 00 09:22:05
FILE "02 - Lem.wav" WAVE
INDEX 01 00:00:00
TRACK 03 AUDIO
TITLE "Death Talking"
PERFORMER "Poly Breath Percussion Band"
INDEX 00 05:39:02
FILE "03 - Death Talking.wav" WAVE
INDEX 01 00:00:00
TRACK 04 AUDIO
TITLE "Snoring"
PERFORMER "Poly Breath Percussion Band"
INDEX 00 17:46:05
FILE "04 - Snoring.wav" WAVE
INDEX 01 00:00:00
TRACK 05 AUDIO
TITLE "Somna Mbulism"
PERFORMER "Poly Breath Percussion Band"
INDEX 00 13:51:15
FILE "05 - Somna Mbulism.wav" WAVE
INDEX 01 00:00:00
 
Доп. информация
Recorded live at Shinjuku Pit Inn, Tokyo on April 17, 1997
 
Об альбоме (сборнике)
Issued in 1997 on PSF, the live album by the Poly Breath Percussion Band is an exercise in skronk, rhythm, and groove. Featuring Shoji Hano on traps and talking drums; Megumu Nishino on an elaborate array of electronic drums, electronics, and traditional Japanese percussion instruments; Tetsu Yamauchi on electric bass; and the totally amazing alto talents of veteran improviser and free jazzer Keizo Inoue (electronica pioneer Tetsu's father), this band in a live setting is just plain dangerous. There are five selections in this live date, and each of them has an individualized methodology in getting to the "real" outside. They begin on the fringes, with fluid rhythms locking horns and gesturing one another further. As the drummers take hold of the middle of an improvisation, Inoue does his part to illustrate and translate the language with his won soloing. He is fastidious, never playing an extra note, and always sharp and angular in his tone, which is refined and honed to a point; it literally cuts through the entire mix to declare, question, explicate, or argue with the rhythmic matters being put forth by the drummers. At the bottom of all this flux and motion is Yamauchi's bass, not holding it together so much as building bridges three ways: between both drummers, then to their collective sound and Inoue's and all of it to himself. He doesn't predict - he reacts and moves everything down to the base of its sonic existence. This is a mind-blowing exercise in free improv with some of the most soulful playing in this setting ever recorded. ~ thom jurek, allmusic.com
Recording of the debut gig by the Poly Breath Percussion Band (aka P.B.2) at the Tokyo Pit Inn in April 1997. Dynamic percussionist Shoji Hano has made a name for himself through several self-released albums, and his work with Peter Brötzmann. However the real revelation here is the 75-year old altoist, Keizo Inoue. Despite having played and taught on the Japanese jazz scene for over 50 years (his pupils include Akira Sakata) and having appeared at the Moers Festival, Inoue has remained a marginal figure in the history of free music. This disk reveals him to be a thoughtful and inventive free player on both alto and clarinet. Soundwise, P.B.2 suggest a more rhythmically complex Last Exit, with Tetsu Yamauchi's heavily-effects altered electric bass providing a lot of tonal interest. Inoue knows just when to step back to give the percussionists the space they need to take off into torrents and whirlpools of pulsating rhythmic heat. A rare antidote to the acres of tedium that are usually taken to represent Japanese jazz. ~ psfrecords.com
 
Состав
Shoji Hano - drums, talking drum
Tetsu Yamauchi - electric bass
Megumu Nishino - wadaiko
Keizo Inoue - alto sax, clarinet
Any questions -> support@pro-jazz.com. По всем вопросам пишите -> support@pro-jazz.com
10:10
182
Нет комментариев. Ваш будет первым!