Вы используете незарегистрированную версию компонента "Вкладки"!

Поиск

(Free Jazz, Contemporary Jazz) Jon Irabagon's Outright! - Outright! - 2008, FLAC (tracks+.cue), lossless

(Free Jazz, Contemporary Jazz) Jon Irabagon's Outright! - Outright! - 2008, FLAC (tracks+.cue), lossless
Треклист:
Jon Irabagon's Outright! / Outright!
Жанр: Free Jazz, Contemporary Jazz
Страна-производитель диска: US
Год издания: 2008
Издатель (лейбл): Innova Recordings
Номер по каталогу: Innova 699
Аудиокодек: FLAC (*.flac)
Тип рипа: tracks+.cue
Битрейт аудио: lossless
Продолжительность: 66:39
Источник (релизер): whatcd
Наличие сканов в содержимом раздачи: нет
Треклист:
1 Anchors (By Design) 8:27
2 Quorum Call 12:01
3 Groovin' High 6:36
4 That Was Then 10:23
5 Outright! Theme 10:12
6 Charles Barkley 11:47
7 Oddjob 7:12
 
Лог создания рипа
Exact Audio Copy V1.0 beta 3 from 29. August 2011
EAC extraction logfile from 11. December 2012, 22:46
Jon Irabagon / Jon Irabagon's Outright!
Used drive : TSSTcorpDVD+-RW TS-H653B Adapter: 2 ID: 0
Read mode : Secure
Utilize accurate stream : Yes
Defeat audio cache : Yes
Make use of C2 pointers : No
Read offset correction : 6
Overread into Lead-In and Lead-Out : No
Fill up missing offset samples with silence : Yes
Delete leading and trailing silent blocks : No
Null samples used in CRC calculations : Yes
Used interface : Installed external ASPI interface
Gap handling : Appended to previous track
Used output format : User Defined Encoder
Selected bitrate : 1024 kBit/s
Quality : High
Add ID3 tag : No
Command line compressor : C:\Program Files (x86)\Exact Audio Copy\Flac\flac.exe
Additional command line options : -8 -V -T "ARTIST=%artist%" -T "TITLE=%title%" -T "ALBUM=%albumtitle%" -T "DATE=%year%" -T "TRACKNUMBER=%tracknr%" -T "GENRE=%genre%" -T "PERFORMER=%albuminterpret%" -T "COMPOSER=%composer%" %haslyrics%--tag-from-file=LYRICS="%lyricsfile%"%haslyrics% -T "ALBUMARTIST=%albumartist%" -T "DISCNUMBER=%cdnumber%" -T "TOTALDISCS=%totalcds%" -T "TOTALTRACKS=%numtracks%" -T "COMMENT=%comment%" %source% -o %dest%
TOC of the extracted CD
Track | Start | Length | Start sector | End sector
---------------------------------------------------------
1 | 0:00.00 | 8:27.19 | 0 | 38043
2 | 8:27.19 | 12:01.16 | 38044 | 92134
3 | 20:28.35 | 6:36.64 | 92135 | 121898
4 | 27:05.24 | 10:23.11 | 121899 | 168634
5 | 37:28.35 | 10:12.12 | 168635 | 214546
6 | 47:40.47 | 11:47.20 | 214547 | 267591
7 | 59:27.67 | 7:12.06 | 267592 | 299997
Track 1
Filename C:\Jon Irabagon - 2008 - Jon Irabagon's Outright!\01 - Anchors (By Design).wav
Pre-gap length 0:00:02.00
Peak level 97.2 %
Extraction speed 4.5 X
Track quality 99.9 %
Test CRC 9A14C5A3
Copy CRC 9A14C5A3
Track not present in AccurateRip database
Copy OK
Track 2
Filename C:\Jon Irabagon - 2008 - Jon Irabagon's Outright!\02 - Quorum Call.wav
Pre-gap length 0:00:01.53
Peak level 97.4 %
Extraction speed 6.2 X
Track quality 100.0 %
Test CRC 0EABF86F
Copy CRC 0EABF86F
Track not present in AccurateRip database
Copy OK
Track 3
Filename C:\Jon Irabagon - 2008 - Jon Irabagon's Outright!\03 - Groovin' High.wav
Peak level 97.3 %
Extraction speed 6.8 X
Track quality 100.0 %
Test CRC 95251836
Copy CRC 95251836
Track not present in AccurateRip database
Copy OK
Track 4
Filename C:\Jon Irabagon - 2008 - Jon Irabagon's Outright!\04 - That Was Then.wav
Pre-gap length 0:00:03.60
Peak level 99.8 %
Extraction speed 7.0 X
Track quality 99.9 %
Test CRC 3A163505
Copy CRC 3A163505
Track not present in AccurateRip database
Copy OK
Track 5
Filename C:\Jon Irabagon - 2008 - Jon Irabagon's Outright!\05 - Outright! Theme.wav
Pre-gap length 0:00:01.16
Peak level 97.3 %
Extraction speed 7.6 X
Track quality 99.9 %
Test CRC BC5975E6
Copy CRC BC5975E6
Track not present in AccurateRip database
Copy OK
Track 6
Filename C:\Jon Irabagon - 2008 - Jon Irabagon's Outright!\06 - Charles Barkley.wav
Pre-gap length 0:00:03.25
Peak level 97.3 %
Extraction speed 9.1 X
Track quality 100.0 %
Test CRC FFA98D8C
Copy CRC FFA98D8C
Track not present in AccurateRip database
Copy OK
Track 7
Filename C:\Jon Irabagon - 2008 - Jon Irabagon's Outright!\07 - Oddjob.wav
Pre-gap length 0:00:03.74
Peak level 97.5 %
Extraction speed 9.4 X
Track quality 100.0 %
Test CRC 37CC3DD8
Copy CRC 37CC3DD8
Track not present in AccurateRip database
Copy OK
None of the tracks are present in the AccurateRip database
No errors occurred
End of status report
==== Log checksum F0DA6F570F72715179CE92A4D496101EB49ECE377785D3BABEF95B3E8BD34EA3 ====
 
Содержание индексной карты (.CUE)
REM GENRE Jazz
REM DATE 2008
REM DISCID 580F9F07
REM COMMENT "ExactAudioCopy v1.0b3"
PERFORMER "Jon Irabagon"
TITLE "Jon Irabagon's Outright!"
FILE "01 - Anchors (By Design).wav" WAVE
TRACK 01 AUDIO
TITLE "Anchors (By Design)"
PERFORMER "Jon Irabagon"
ISRC H1iIK0869901
INDEX 01 00:00:00
TRACK 02 AUDIO
TITLE "Quorum Call"
PERFORMER "Jon Irabagon"
ISRC H1iIK0869902
INDEX 00 08:25:54
FILE "02 - Quorum Call.wav" WAVE
INDEX 01 00:00:00
FILE "03 - Groovin' High.wav" WAVE
TRACK 03 AUDIO
TITLE "Groovin' High"
PERFORMER "Jon Irabagon"
ISRC H1iIK0869902
INDEX 01 00:00:00
TRACK 04 AUDIO
TITLE "That Was Then"
PERFORMER "Jon Irabagon"
ISRC H1iIK0869904
INDEX 00 06:33:19
FILE "04 - That Was Then.wav" WAVE
INDEX 01 00:00:00
TRACK 05 AUDIO
TITLE "Outright! Theme"
PERFORMER "Jon Irabagon"
ISRC H1iIK0869905
INDEX 00 10:21:74
FILE "05 - Outright! Theme.wav" WAVE
INDEX 01 00:00:00
TRACK 06 AUDIO
TITLE "Charles Barkley"
PERFORMER "Jon Irabagon"
ISRC H1iIK0869906
INDEX 00 10:08:68
FILE "06 - Charles Barkley.wav" WAVE
INDEX 01 00:00:00
TRACK 07 AUDIO
TITLE "Oddjob"
PERFORMER "Jon Irabagon"
ISRC H1iIK0869907
INDEX 00 11:43:39
FILE "07 - Oddjob.wav" WAVE
INDEX 01 00:00:00
 
Состав
Acoustic Bass – Eivind Opsvik, Michael Bates, Moppa Elliott
Acoustic Guitar – Richie Miletic
Alto Saxophone – Andrew Neff, Jon Irabagon, Loren Stillman
Baritone Saxophone – Carl Maraghi
Bass Saxophone, Trombone [Bass] – Max Seigel
Choir – Bryan Murray, Eivind Opsvik, Jack Broad, Jason Gillenwater, Jason Rigby, Jeff Davis , Jon Irabagon, Kris Davis, Linda Oh, Loren Stillman, Max Seigel, Moppa Elliott, Richie Miletic, Russ Johnson, Scott DuBois
Clarinet – Jason Gillenwater
Drums – Jeff Davis
Electric Bass – Linda Oh, Matt Grason
Electric Guitar – Jesse Lewis, Scott DuBois, Terry McManus
Organ – Alex Smith, Kris Davis
Piano – Kris Davis
Sopranino Saxophone, Soprano Saxophone – Peter van Huffel
Tenor Saxophone – Bryan Murray, Jason Rigby, Jon Irabagon, Samir Zarif
Trombone – John Yao, Tim Vaughn
Trumpet – C. J. Camerieri, Justin Ray, Kirk Knuffke, Russ Johnson
Any questions -> support@pro-jazz.com. По всем вопросам пишите -> support@pro-jazz.com
10:10
152
Нет комментариев. Ваш будет первым!