Вы используете незарегистрированную версию компонента "Вкладки"!

Поиск

(Avant-Garde, Contemporary Jazz) David Murray Trio - The Hill - 1988, FLAC (tracks+.cue), lossless

(Avant-Garde, Contemporary Jazz) David Murray Trio - The Hill - 1988, FLAC (tracks+.cue), lossless
Треклист:
David Murray Trio / The Hill
Жанр: Avant-Garde, Contemporary Jazz
Страна-производитель диска: Italy
Год издания: 1988
Издатель (лейбл): Black Saint
Номер по каталогу: 120 110-2
Аудиокодек: FLAC (*.flac)
Тип рипа: tracks+.cue
Битрейт аудио: lossless
Продолжительность: 48:55
Источник (релизер): Max Monteiro
Наличие сканов в содержимом раздачи: нет
Треклист:
1. Santa Barbara and Crenshaw Follies (David Murray) 8:28
2. The Hill (David Murray) 9:03
3. Fling (Lawrence « Butch » Morris) 7:13
4. Take the Coltrane (Duke Ellington) 7:45
5. Herbie Miller (David Murray) 5:55
6. Chelsea Bridge (Billy Strayhorn) 10:31
 
Лог создания рипа
Exact Audio Copy V1.0 beta 3 from 29. August 2011
EAC extraction logfile from 13. March 2013, 21:43
David Murray Trio / The Hill
Used drive : SlimtypeeNAU508 5 Adapter: 1 ID: 0
Read mode : Secure
Utilize accurate stream : Yes
Defeat audio cache : Yes
Make use of C2 pointers : No
Read offset correction : 6
Overread into Lead-In and Lead-Out : No
Fill up missing offset samples with silence : Yes
Delete leading and trailing silent blocks : No
Null samples used in CRC calculations : Yes
Used interface : Native Win32 interface for Win NT & 2000
Gap handling : Appended to previous track
Used output format : User Defined Encoder
Selected bitrate : 768 kBit/s
Quality : High
Add ID3 tag : No
Command line compressor : C:\Program Files (x86)\Exact Audio Copy\Flac\flac.exe
Additional command line options : -8 -V -T "ARTIST=%artist%" -T "TITLE=%title%" -T "ALBUM=%albumtitle%" -T "DATE=%year%" -T "TRACKNUMBER=%tracknr%" -T "GENRE=%genre%" -T "PERFORMER=%albuminterpret%" -T "COMPOSER=%composer%" %haslyrics%--tag-from-file=LYRICS="%lyricsfile%"%haslyrics% -T "ALBUMARTIST=%albumartist%" -T "DISCNUMBER=%cdnumber%" -T "TOTALDISCS=%totalcds%" -T "TOTALTRACKS=%numtracks%" -T "COMMENT=%comment%" %source% -o %dest%
TOC of the extracted CD
Track | Start | Length | Start sector | End sector
---------------------------------------------------------
1 | 0:00.33 | 8:28.00 | 33 | 38132
2 | 8:28.33 | 9:03.00 | 38133 | 78857
3 | 17:31.33 | 7:13.00 | 78858 | 111332
4 | 24:44.33 | 7:45.00 | 111333 | 146207
5 | 32:29.33 | 5:55.00 | 146208 | 172832
6 | 38:24.33 | 10:31.00 | 172833 | 220157
Track 1
Filename C:\EAC rips\01 - Santa Barbara and Crenshaw Follies.wav
Pre-gap length 0:00:02.33
Peak level 91.1 %
Extraction speed 1.2 X
Track quality 100.0 %
Test CRC FECF26C3
Copy CRC FECF26C3
Accurately ripped (confidence 10) [1AD2CFC2] (AR v1)
Copy OK
Track 2
Filename C:\EAC rips\02 - The Hill.wav
Pre-gap length 0:00:03.00
Peak level 87.8 %
Extraction speed 1.4 X
Track quality 100.0 %
Test CRC 0AFD7A5B
Copy CRC 0AFD7A5B
Accurately ripped (confidence 10) [82DF1B15] (AR v1)
Copy OK
Track 3
Filename C:\EAC rips\03 - Fling.wav
Pre-gap length 0:00:03.00
Peak level 72.6 %
Extraction speed 1.6 X
Track quality 100.0 %
Test CRC 0564C40B
Copy CRC 0564C40B
Accurately ripped (confidence 10) [88BA3B59] (AR v1)
Copy OK
Track 4
Filename C:\EAC rips\04 - Take the Coltrane.wav
Pre-gap length 0:00:04.00
Peak level 90.3 %
Extraction speed 1.8 X
Track quality 100.0 %
Test CRC 31850378
Copy CRC 31850378
Accurately ripped (confidence 9) [A6ACF2C7] (AR v1)
Copy OK
Track 5
Filename C:\EAC rips\05 - Herbie Miller.wav
Pre-gap length 0:00:03.00
Peak level 58.0 %
Extraction speed 1.9 X
Track quality 100.0 %
Test CRC FCFC2828
Copy CRC FCFC2828
Accurately ripped (confidence 10) [6210A139] (AR v1)
Copy OK
Track 6
Filename C:\EAC rips\06 - Chelsea Bridge.wav
Pre-gap length 0:00:03.00
Peak level 63.6 %
Extraction speed 2.1 X
Track quality 100.0 %
Test CRC DE5F4B21
Copy CRC DE5F4B21
Accurately ripped (confidence 10) [53273767] (AR v1)
Copy OK
All tracks accurately ripped
No errors occurred
End of status report
---- CUETools DB Plugin V2.1.4
[CTDB TOCID: RKfL2lD2SLa3akWrJbq.G6DsIdI-] disk not present in database
Submit result: RKfL2lD2SLa3akWrJbq.G6DsIdI- has been uploaded
==== Log checksum 22CBF9450F7C7984A3F846983E38CD2B8FCA88F4C23461D3075378F0356A21D3 ====
 
Содержание индексной карты (.CUE)
REM GENRE Jazz
REM DATE 1988
REM DISCID 3F0B7706
REM COMMENT "ExactAudioCopy v1.0b3"
PERFORMER "David Murray Trio"
TITLE "The Hill"
FILE "01 - Santa Barbara and Crenshaw Follies.wav" WAVE
TRACK 01 AUDIO
TITLE "Santa Barbara and Crenshaw Follies"
PERFORMER "David Murray Trio"
PREGAP 00:00:33
INDEX 01 00:00:00
TRACK 02 AUDIO
TITLE "The Hill"
PERFORMER "David Murray Trio"
INDEX 00 08:25:00
FILE "02 - The Hill.wav" WAVE
INDEX 01 00:00:00
TRACK 03 AUDIO
TITLE "Fling"
PERFORMER "David Murray Trio"
INDEX 00 09:00:00
FILE "03 - Fling.wav" WAVE
INDEX 01 00:00:00
TRACK 04 AUDIO
TITLE "Take the Coltrane"
PERFORMER "David Murray Trio"
INDEX 00 07:09:00
FILE "04 - Take the Coltrane.wav" WAVE
INDEX 01 00:00:00
TRACK 05 AUDIO
TITLE "Herbie Miller"
PERFORMER "David Murray Trio"
INDEX 00 07:42:00
FILE "05 - Herbie Miller.wav" WAVE
INDEX 01 00:00:00
TRACK 06 AUDIO
TITLE "Chelsea Bridge"
PERFORMER "David Murray Trio"
INDEX 00 05:52:00
FILE "06 - Chelsea Bridge.wav" WAVE
INDEX 01 00:00:00
Доп. информация: Recorded November 29, 1986 at Sound Ideas Studios, New York.
 
Состав
David Murray – Tenor Saxophone, Bass Clarinet
Richard Davis – Bass
Joe Chambers – Drums, Vibes
Any questions -> support@pro-jazz.com. По всем вопросам пишите -> support@pro-jazz.com
10:11
176
Нет комментариев. Ваш будет первым!