Вы используете незарегистрированную версию компонента "Вкладки"!

Поиск

(Avant-Garde, Modern Creative) Kahil El'Zabar's Ritual Trio featuring Billy Bang - Big M, A Tribute to Malachi Favors - 2006, FLAC (tracks+.cue), lossless

(Avant-Garde, Modern Creative) Kahil El'Zabar's Ritual Trio featuring Billy Bang - Big M, A Tribute to Malachi Favors - 2006, FLAC (tracks+.cue), lossless
Треклист:
Kahil El'Zabar's Ritual Trio featuring Billy Bang / Big M, A Tribute to Malachi Favors
Жанр: Avant-Garde, Modern Creative
Страна-производитель диска: U.S.A.
Год издания: 2006
Издатель (лейбл): Delmark Records
Номер по каталогу: DE 572
Аудиокодек: FLAC (*.flac)
Тип рипа: tracks+.cue
Битрейт аудио: lossless
Продолжительность: 1:04:59
Источник (релизер): Max Monteiro
Наличие сканов в содержимом раздачи: да
Треклист:
1. Crumb-Puck-U-Lent 6:26
2. Oof 11:21
3. Freedom Flexibility 8:50
4. Big M 5:52
5. Kau 11:22
6. Maghoustut 10:59
7. Malachi 10:08
All compositions by Kahil El’Zabar except « Freedom Flexibility » by Billy Bang.
 
Лог создания рипа
Exact Audio Copy V1.0 beta 3 from 29. August 2011
EAC extraction logfile from 14. March 2013, 11:20
Kahil El'Zabar's Ritual Trio / Big M, A Tribute to Malachi Favors
Used drive : SlimtypeeNAU508 5 Adapter: 1 ID: 0
Read mode : Secure
Utilize accurate stream : Yes
Defeat audio cache : Yes
Make use of C2 pointers : No
Read offset correction : 6
Overread into Lead-In and Lead-Out : No
Fill up missing offset samples with silence : Yes
Delete leading and trailing silent blocks : No
Null samples used in CRC calculations : Yes
Used interface : Native Win32 interface for Win NT & 2000
Gap handling : Appended to previous track
Used output format : User Defined Encoder
Selected bitrate : 768 kBit/s
Quality : High
Add ID3 tag : No
Command line compressor : C:\Program Files (x86)\Exact Audio Copy\Flac\flac.exe
Additional command line options : -8 -V -T "ARTIST=%artist%" -T "TITLE=%title%" -T "ALBUM=%albumtitle%" -T "DATE=%year%" -T "TRACKNUMBER=%tracknr%" -T "GENRE=%genre%" -T "PERFORMER=%albuminterpret%" -T "COMPOSER=%composer%" %haslyrics%--tag-from-file=LYRICS="%lyricsfile%"%haslyrics% -T "ALBUMARTIST=%albumartist%" -T "DISCNUMBER=%cdnumber%" -T "TOTALDISCS=%totalcds%" -T "TOTALTRACKS=%numtracks%" -T "COMMENT=%comment%" %source% -o %dest%
TOC of the extracted CD
Track | Start | Length | Start sector | End sector
---------------------------------------------------------
1 | 0:00.00 | 6:26.08 | 0 | 28957
2 | 6:26.08 | 11:21.18 | 28958 | 80050
3 | 17:47.26 | 8:50.00 | 80051 | 119800
4 | 26:37.26 | 5:52.31 | 119801 | 146231
5 | 32:29.57 | 11:22.31 | 146232 | 197412
6 | 43:52.13 | 10:58.59 | 197413 | 246821
7 | 54:50.72 | 10:08.06 | 246822 | 292427
Track 1
Filename C:\EAC rips\01 - Crumb-Puck-U-Lent.wav
Pre-gap length 0:00:02.00
Peak level 100.0 %
Extraction speed 2.0 X
Track quality 99.9 %
Test CRC EC0F6344
Copy CRC EC0F6344
Accurately ripped (confidence 3) [8E37AC17] (AR v1)
Copy OK
Track 2
Filename C:\EAC rips\02 - Oof.wav
Pre-gap length 0:00:02.37
Peak level 100.0 %
Extraction speed 2.7 X
Track quality 99.9 %
Test CRC 854C35AF
Copy CRC 854C35AF
Accurately ripped (confidence 3) [9C824022] (AR v1)
Copy OK
Track 3
Filename C:\EAC rips\03 - Freedom Flexibility.wav
Pre-gap length 0:00:02.00
Peak level 100.0 %
Extraction speed 3.3 X
Track quality 100.0 %
Test CRC 21247764
Copy CRC 21247764
Accurately ripped (confidence 3) [02C7FE62] (AR v1)
Copy OK
Track 4
Filename C:\EAC rips\04 - Big M.wav
Pre-gap length 0:00:02.00
Peak level 100.0 %
Extraction speed 3.5 X
Track quality 100.0 %
Test CRC 1A960043
Copy CRC 1A960043
Accurately ripped (confidence 3) [7E54FE69] (AR v1)
Copy OK
Track 5
Filename C:\EAC rips\05 - Kau.wav
Pre-gap length 0:00:02.00
Peak level 100.0 %
Extraction speed 4.0 X
Track quality 100.0 %
Test CRC F3636197
Copy CRC F3636197
Accurately ripped (confidence 3) [91049721] (AR v1)
Copy OK
Track 6
Filename C:\EAC rips\06 - Maghoustut.wav
Pre-gap length 0:00:03.00
Peak level 100.0 %
Extraction speed 4.4 X
Track quality 100.0 %
Test CRC CC6A265D
Copy CRC CC6A265D
Accurately ripped (confidence 3) [88D3A717] (AR v1)
Copy OK
Track 7
Filename C:\EAC rips\07 - Malachi.wav
Pre-gap length 0:00:02.37
Peak level 98.9 %
Extraction speed 4.7 X
Track quality 100.0 %
Test CRC 4F431278
Copy CRC 4F431278
Accurately ripped (confidence 3) [6FAE62EA] (AR v1)
Copy OK
All tracks accurately ripped
No errors occurred
End of status report
---- CUETools DB Plugin V2.1.4
[CTDB TOCID: S7d25D2E_2YFLQTIDspYMx4RuDk-] found
Submit result: S7d25D2E_2YFLQTIDspYMx4RuDk- has been confirmed
Track | CTDB Status
1 | (2/2) Accurately ripped
2 | (2/2) Accurately ripped
3 | (2/2) Accurately ripped
4 | (2/2) Accurately ripped
5 | (2/2) Accurately ripped
6 | (2/2) Accurately ripped
7 | (2/2) Accurately ripped
==== Log checksum 15BFA0B46060C22848D649B9AF66253147930AC0A28668E328BF3D35A20855DC ====
 
Содержание индексной карты (.CUE)
REM GENRE Jazz
REM DATE 2006
REM DISCID 6C0F3B07
REM COMMENT "ExactAudioCopy v1.0b3"
PERFORMER "Kahil El'Zabar's Ritual Trio featuring Billy Bang"
TITLE "Big M, A Tribute to Malachi Favors"
FILE "01 - Crumb-Puck-U-Lent.wav" WAVE
TRACK 01 AUDIO
TITLE "Crumb-Puck-U-Lent"
PERFORMER "Kahil El'Zabar's Ritual Trio featuring Billy Bang"
ISRC US4B90657201
FLAGS DCP
INDEX 01 00:00:00
TRACK 02 AUDIO
TITLE "Oof"
PERFORMER "Kahil El'Zabar's Ritual Trio featuring Billy Bang"
ISRC US4B90657202
FLAGS DCP
INDEX 00 06:23:46
FILE "02 - Oof.wav" WAVE
INDEX 01 00:00:00
TRACK 03 AUDIO
TITLE "Freedom Flexibility"
PERFORMER "Kahil El'Zabar's Ritual Trio featuring Billy Bang"
ISRC US4B90657203
FLAGS DCP
INDEX 00 11:19:18
FILE "03 - Freedom Flexibility.wav" WAVE
INDEX 01 00:00:00
TRACK 04 AUDIO
TITLE "Big M"
PERFORMER "Kahil El'Zabar's Ritual Trio featuring Billy Bang"
ISRC US4B90657204
FLAGS DCP
INDEX 00 08:48:00
FILE "04 - Big M.wav" WAVE
INDEX 01 00:00:00
TRACK 05 AUDIO
TITLE "Kau"
PERFORMER "Kahil El'Zabar's Ritual Trio featuring Billy Bang"
ISRC US4B90657205
FLAGS DCP
INDEX 00 05:50:31
FILE "05 - Kau.wav" WAVE
INDEX 01 00:00:00
TRACK 06 AUDIO
TITLE "Maghoustut"
PERFORMER "Kahil El'Zabar's Ritual Trio featuring Billy Bang"
ISRC US4B90657206
FLAGS DCP
INDEX 00 11:19:31
FILE "06 - Maghoustut.wav" WAVE
INDEX 01 00:00:00
TRACK 07 AUDIO
TITLE "Malachi"
PERFORMER "Kahil El'Zabar's Ritual Trio featuring Billy Bang"
ISRC US4B90657207
FLAGS DCP
INDEX 00 10:56:22
FILE "07 - Malachi.wav" WAVE
INDEX 01 00:00:00
Доп. информация: Recorded at Riverside Studio, Chicago on December 20 & 21, 1994.
 
Состав
Kahil El’Zabar – Drums, Earth Drums, Kalimba, Flute, Vocal
Yosef Ben Israel – Bass
Ari Brown – Tenor Saxophone, Piano
Billy Bang – Violin
Any questions -> support@pro-jazz.com. По всем вопросам пишите -> support@pro-jazz.com
10:08
155
Нет комментариев. Ваш будет первым!