Вы используете незарегистрированную версию компонента "Вкладки"!

Поиск

(Contemporary Jazz / Avant-Garde Jazz) Timuçin Şahin Quintet (Timucin Sahin) (John O' Gallagher, Tyshawn Sorey, Christopher Tordini, Ralph Alessi) - Inherence - 2013 [Between The Lines BTLCHR 71233], FLAC (tracks+.cue), lossless

(Contemporary Jazz / Avant-Garde Jazz) Timuçin Şahin Quintet (Timucin Sahin) (John O' Gallagher, Tyshawn Sorey, Christopher Tordini, Ralph Alessi) - Inherence - 2013 [Between The Lines BTLCHR 71233], FLAC (tracks+.cue), lossless
Треклист:
Timuçin Şahin Quintet - Inherence
Жанр: Contemporary Jazz / Avant-Garde Jazz
Страна-производитель диска: Germany
Год издания: 2013
Издатель (лейбл): Between The Lines
Номер по каталогу: BTLCHR 71233
Аудиокодек: FLAC (*.flac)
Тип рипа: tracks+.cue
Битрейт аудио: lossless
Продолжительность: 00:48:13
Источник (релизер): what.cd / спасибо flavius
Наличие сканов в содержимом раздачи: front & back only
Треклист:
1. Inherence (09:32)
2. My Left Foot (10:03)
3. Delayed (09:57)
4. Tikiti (Mahir's Father) (05:45)
5. At Toms (07:42)
6. Bakumbaga (Mahir's Turtle) (05:14)
7. Buddy And Ringo (01:20)
Доп. информация:
Musicians:
TIMUÇIN ŞAHIN - 6 string electric guitars, 7 string fretless electric guitar, compositions
JOHN O' GALLAGHER - alto saxophone
TYSHAWN SOREY - drums
CHRISTOPHER TORDINI - contrabass
RALPH ALESSI - trumpet
TIMUÇIN ŞAHIN myspace.com
TIMUÇIN ŞAHIN QUINTET - Inherence betweenthelines.de
 
... photo ...
 
... reviews ...
It is said that there are guitarists who play especially conspicuous or bizarre guitar models to underline how "cool" they are. However, such silly motives can be excluded completely in the case of Timucin Sahin. His sole motive is the enhancement of his own possibilities for structuring his music, which the two guitar necks of his custom-made model give him: one with frets and one without. "It is a very unconventional sound. But you first have to master the vocabulary on a fretless guitar before you can really get going on it," Timucin stated in an interview. On his second CD at Between the Lines (following 'Bafa', BTLCHR 71221, 2009), his influences and ideas can be heard again, which range from his intensive studies of south Indian music and the harmonics of Ornette Coleman to his enthusiasm for rock bands from Led Zeppelin to Van Halen They are not used for cliché-type copies, but instead are very subtle. You have to listen very closely to understand the stories that Sahin tells. However, if you let yourself be drawn into them, you are captivated and fascinated by the intensive tales full of details as well as by the sudden twists, the careful build-up of tension due to unusual harmony sequences and then again the free association of dominating embellishments.
Timucin Sahin, born in Turkey, emigrated to Holland as a young man to study in Hilversum and Amsterdam. Then he continued his studies at the Manhattan School of Music. After receiving numerous prizes and awards, he became a teacher himself. His many encounters with other jazz musicians (Mark Turner, Greg Osby, Randy Brecker) enrich his playing incessantly. And his encounter with a new citizen of the world certainly also does this; the young father dedicates his music on his new album to his recently- born son.
Sahin has tried-and-tested musicians on two instruments in his new quintet: John O´Gallagher is a saxophonist highly respected among his colleagues (Tom Harrell, Chris Potter, Maria Schneider, etc.). His dialog with Sahin has not only enthused audiences at numerous festival performances (North Sea Jazz Festival, Moers, etc.), but is also very convincing on the CD. The intensity of these musical dialogs is hard to beat, and the technical refinements are impressive.
Another colleague of many years is the maybe the best and most versatile jazz drummer these days: Tyshawn Sorey. He understands Sahin 's ideas before he even plays them and does not just accompany them, but drives them forward, gives them dynamics such as only a drummer in his class can do.
On the other hand, the bassist is new, but for whom a great future can be predicted: Christopher Tordini. He has already played with Tyshawn Sorey in other groups, and the press always praised them for their joint creative potential. Tordini plays powerfully without being heavy-handed. He plays melodious phrases without sounding banal, and consequently is also in great demand in genres other than jazz. We'll hear a lot about him in the future!
Also new in Sahin 's band: Ralph Alessi. However, not new at Between the Lines – he had his much respected international debut with "Look" (BTLCHR 71213, 2006), and he also plays as a sideman on Jeff Denson's release "Secret World" in 2012 (BTLCHR 71229, 2012). The fact that he worked with Steve Coleman and Uri Caine has also earned him a lot of attention. With his unbelievably precise, clear sound, he enriches the band in a fundamental way.
~ betweenthelines.de
 
Лог создания рипа
Exact Audio Copy V1.0 beta 3 from 29. August 2011
EAC extraction logfile from 25. January 2013, 20:48
Timucin Sahin Quintet / Inherence
Used drive : TSSTcorpCD/DVDW SH-S182M Adapter: 2 ID: 1
Read mode : Secure
Utilize accurate stream : Yes
Defeat audio cache : Yes
Make use of C2 pointers : No
Read offset correction : 6
Overread into Lead-In and Lead-Out : No
Fill up missing offset samples with silence : Yes
Delete leading and trailing silent blocks : No
Null samples used in CRC calculations : Yes
Used interface : Installed external ASPI interface
Gap handling : Appended to previous track
Used output format : User Defined Encoder
Selected bitrate : 1024 kBit/s
Quality : High
Add ID3 tag : No
Command line compressor : C:\Program Files\eac-1.0beta3\FLAC\FLAC.EXE
Additional command line options : -8 -V -T "ARTIST=%artist%" -T "TITLE=%title%" -T "ALBUM=%albumtitle%" -T "DATE=%year%" -T "TRACKNUMBER=%tracknr%" -T "GENRE=%genre%" -T "PERFORMER=%albuminterpret%" -T "COMPOSER=%composer%" %haslyrics%--tag-from-file=LYRICS="%lyricsfile%"%haslyrics% -T "ALBUMARTIST=%albumartist%" -T "ALBUM ARTIST=%albumartist%" -T "DISCNUMBER=%cdnumber%" -T "TOTALDISCS=%totalcds%" -T "TOTALTRACKS=%numtracks%" -T "COMMENT=ivo" %source% -o %dest%
TOC of the extracted CD
Track | Start | Length | Start sector | End sector
---------------------------------------------------------
1 | 0:00.00 | 9:33.19 | 0 | 42993
2 | 9:33.19 | 10:06.04 | 42994 | 88447
3 | 19:39.23 | 9:53.04 | 88448 | 132926
4 | 29:32.27 | 5:46.69 | 132927 | 158945
5 | 35:19.21 | 7:43.67 | 158946 | 193737
6 | 43:03.13 | 5:14.74 | 193738 | 217361
7 | 48:18.12 | 1:23.56 | 217362 | 223642
Track 1
Filename E:\igor\eac\01 - Inherence.wav
Pre-gap length 0:00:02.00
Peak level 94.2 %
Extraction speed 4.9 X
Track quality 100.0 %
Test CRC 91CAB91D
Copy CRC 91CAB91D
Track not present in AccurateRip database
Copy OK
Track 2
Filename E:\igor\eac\02 - My Left Foot.wav
Peak level 94.2 %
Extraction speed 5.9 X
Track quality 100.0 %
Test CRC BA858712
Copy CRC BA858712
Track not present in AccurateRip database
Copy OK
Track 3
Filename E:\igor\eac\03 - Delayed.wav
Peak level 94.2 %
Extraction speed 6.7 X
Track quality 100.0 %
Test CRC 0904A5DC
Copy CRC 0904A5DC
Track not present in AccurateRip database
Copy OK
Track 4
Filename E:\igor\eac\04 - Tikiti (Mahir's Father).wav
Peak level 94.2 %
Extraction speed 6.3 X
Track quality 99.9 %
Test CRC 8568CCDC
Copy CRC 8568CCDC
Track not present in AccurateRip database
Copy OK
Track 5
Filename E:\igor\eac\05 - At Toms.wav
Peak level 94.1 %
Extraction speed 7.5 X
Track quality 100.0 %
Test CRC DED50122
Copy CRC DED50122
Track not present in AccurateRip database
Copy OK
Track 6
Filename E:\igor\eac\06 - Bakumbaga (Mahir's Turtle).wav
Peak level 94.1 %
Extraction speed 7.6 X
Track quality 100.0 %
Test CRC 98ED8E66
Copy CRC 98ED8E66
Track not present in AccurateRip database
Copy OK
Track 7
Filename E:\igor\eac\07 - Buddy and Ringo.wav
Peak level 49.1 %
Extraction speed 6.0 X
Track quality 100.0 %
Test CRC CFF59DEF
Copy CRC CFF59DEF
Track not present in AccurateRip database
Copy OK
None of the tracks are present in the AccurateRip database
No errors occurred
End of status report
---- CUETools DB Plugin V2.1.3
[CTDB TOCID: DRdlWs58rBqYIZ104jaXknOXgp0-] disk not present in database, Submit result: DRdlWs58rBqYIZ104jaXknOXgp0- has been uploaded
==== Log checksum 113149F7129A79B7CBD54F0CA5DAFFD79E8CABD7D1CC7F6D3801B9D7F3D80B21 ====
 
Содержание индексной карты (.CUE)
REM GENRE "Between the Lines 71233"
REM DATE 2013
REM DISCID 560BA507
REM COMMENT "ExactAudioCopy v1.0b3"
PERFORMER "Timucin Sahin Quintet"
TITLE "Inherence"
FILE "01 - Inherence.wav" WAVE
TRACK 01 AUDIO
TITLE "Inherence"
PERFORMER "Timucin Sahin Quintet"
INDEX 01 00:00:00
FILE "02 - My Left Foot.wav" WAVE
TRACK 02 AUDIO
TITLE "My Left Foot"
PERFORMER "Timucin Sahin Quintet"
INDEX 01 00:00:00
FILE "03 - Delayed.wav" WAVE
TRACK 03 AUDIO
TITLE "Delayed"
PERFORMER "Timucin Sahin Quintet"
INDEX 01 00:00:00
FILE "04 - Tikiti (Mahir's Father).wav" WAVE
TRACK 04 AUDIO
TITLE "Tikiti (Mahir's Father)"
PERFORMER "Timucin Sahin Quintet"
INDEX 01 00:00:00
FILE "05 - At Toms.wav" WAVE
TRACK 05 AUDIO
TITLE "At Toms"
PERFORMER "Timucin Sahin Quintet"
INDEX 01 00:00:00
FILE "06 - Bakumbaga (Mahir's Turtle).wav" WAVE
TRACK 06 AUDIO
TITLE "Bakumbaga (Mahir's Turtle)"
PERFORMER "Timucin Sahin Quintet"
INDEX 01 00:00:00
FILE "07 - Buddy and Ringo.wav" WAVE
TRACK 07 AUDIO
TITLE "Buddy and Ringo"
PERFORMER "Timucin Sahin Quintet"
INDEX 01 00:00:00
 
auCDtect Task Manager
-----------------------
DON'T MODIFY THIS FILE
-----------------------
PERFORMER: auCDtect Task Manager, ver. 1.5.1RC6 build 1.5.1.7
Copyright (c) 2008-2010 y-soft. All rights reserved
http://y-soft.org
ANALYZER: auCDtect: CD records authenticity detector, version 0.8.2
Copyright (c) 2004 Oleg Berngardt. All rights reserved.
Copyright (c) 2004 Alexander Djourik. All rights reserved.
FILE: 07 - Buddy and Ringo.flac
Size: 4765582 Hash: 99B94668DB52A862AFC958F0E108780B Accuracy: -m0
Conclusion: CDDA 100%
Signature: AAA0E51AFE79847D50F5C8049942C046B7815E95
FILE: 06 - Bakumbaga (Mahir's Turtle).flac
Size: 19877686 Hash: 33F5FE5D315F963803CE60DCC32BCA59 Accuracy: -m0
Conclusion: CDDA 100%
Signature: E0DAEE1C95744B7EED90007F164B5BBE54415E05
FILE: 05 - At Toms.flac
Size: 39509895 Hash: BD011FD7BDEAEB5F6BDA60F4D1F278F6 Accuracy: -m0
Conclusion: CDDA 100%
Signature: E473B8AC16AD160FB65B6E735EF67DF48C04D07D
FILE: 04 - Tikiti (Mahir's Father).flac
Size: 23535101 Hash: 6FE68E10534DF375FEDDF8D88EFBFE85 Accuracy: -m0
Conclusion: CDDA 100%
Signature: D5CC443ABCEF144863780DE6048FBD39D6ACEFB4
FILE: 03 - Delayed.flac
Size: 57069158 Hash: AAE11C63B50122182960CA08026DC3D5 Accuracy: -m0
Conclusion: CDDA 100%
Signature: 05066C678B212AF910F8C4763EF27A3D347824B9
FILE: 02 - My Left Foot.flac
Size: 63152965 Hash: 4F21E0B1584526F38F1512D861E12C8A Accuracy: -m0
Conclusion: CDDA 100%
Signature: 19761AFF1B27C4C5BDD26126AABEE5D129E0466C
FILE: 01 - Inherence.flac
Size: 63208002 Hash: FBE7455FF91AFBEDB64C5D9BE35CD9EB Accuracy: -m0
Conclusion: CDDA 100%
Signature: 40D63F60E7A261B063147BC3C0A8A346D87C4D0D
... релизы с участием TYSHAWN SOREY на трекере ...
Any questions -> support@pro-jazz.com. По всем вопросам пишите -> support@pro-jazz.com
10:08
173
Нет комментариев. Ваш будет первым!