Поиск

(Modern Free-Jazz) The Thing - Now And Forever - 2007, FLAC (image+.cue), lossless

(Modern Free-Jazz) The Thing - Now And Forever - 2007, FLAC (image+.cue), lossless
Треклист:
The Thing - Now And Forever
Жанр: Modern Free-Jazz
Год выпуска диска: 2007
Производитель диска: Norway (Smalltown Superjazz)
Аудио кодек: FLAC
Тип рипа: image+.cue
Битрейт аудио: lossless
Продолжительность: 2:24:04
Mats Gustafsson saxophones
Ingebrigt Håker Flaten double bass
Pall Nilssen-Love drums
Disc 1: Gustafsson Flaten Nilssen-Love - The Thing (2000)
Awake Nu
Mopti
Cherryco
Ode to Don
The Art of Steve Roney - Smillin'
Trans-Love Airways
Disc 2: The Thing with Joe McPhee - She Knows (2001)
To Bring You My Love
The Thing
Baby Talk
Going Home
For Real
Old Eyes
Disc 3: The Thing with Thurston Moore - Live at Øya (DVD)
Disc 4 The Thing - Gluttony (2007)
Part 1
Part 2
Part 3
 
EAC Report (Disc 1)
Exact Audio Copy V0.99 prebeta 4 from 23. January 2008
EAC extraction logfile from 19. October 2008, 15:05
Gustafsson / Flaten / Nilssen-Love / The Thing
Used drive : TSSTcorpCD/DVDW SH-S182M Adapter: 2 ID: 1
Read mode : Secure
Utilize accurate stream : Yes
Defeat audio cache : Yes
Make use of C2 pointers : No
Read offset correction : 6
Overread into Lead-In and Lead-Out : No
Fill up missing offset samples with silence : Yes
Delete leading and trailing silent blocks : No
Null samples used in CRC calculations : Yes
Used interface : Installed external ASPI interface
Used output format : User Defined Encoder
Selected bitrate : 1024 kBit/s
Quality : High
Add ID3 tag : No
Command line compressor : C:\Program Files\Exact Audio Copy\FLAC\FLAC.EXE
Additional command line options : -6 -V -T "ARTIST=%a" -T "TITLE=%t" -T "ALBUM=%g" -T "DATE=%y" -T "TRACKNUMBER=%n" -T "GENRE=%m" -T "COMMENT=%e" %s -o %d
TOC of the extracted CD
Track | Start | Length | Start sector | End sector
---------------------------------------------------------
1 | 0:00.00 | 5:06.00 | 0 | 22949
2 | 5:06.00 | 11:35.00 | 22950 | 75074
3 | 16:41.00 | 8:45.00 | 75075 | 114449
4 | 25:26.00 | 3:37.50 | 114450 | 130774
5 | 29:03.50 | 2:38.00 | 130775 | 142624
6 | 31:41.50 | 19:17.40 | 142625 | 229439
Range status and errors
Selected range
Filename C:\z\Gustafsson Flaten Nilssen-Love - The Thing.wav
Peak level 98.8 %
Range quality 100.0 %
Copy CRC 5D116B0D
Copy OK
No errors occurred
AccurateRip summary
Track 1 not present in database
Track 2 not present in database
Track 3 not present in database
Track 4 not present in database
Track 5 not present in database
Track 6 not present in database
None of the tracks are present in the AccurateRip database
End of status report
 
EAC Report (Disc 2)
Exact Audio Copy V0.99 prebeta 4 from 23. January 2008
EAC extraction logfile from 19. October 2008, 17:50
The Thing with Joe McPhee / She Knows...
Used drive : TSSTcorpCD/DVDW SH-S182M Adapter: 2 ID: 1
Read mode : Secure
Utilize accurate stream : Yes
Defeat audio cache : Yes
Make use of C2 pointers : No
Read offset correction : 6
Overread into Lead-In and Lead-Out : No
Fill up missing offset samples with silence : Yes
Delete leading and trailing silent blocks : No
Null samples used in CRC calculations : Yes
Used interface : Installed external ASPI interface
Used output format : User Defined Encoder
Selected bitrate : 1024 kBit/s
Quality : High
Add ID3 tag : No
Command line compressor : C:\Program Files\Exact Audio Copy\FLAC\FLAC.EXE
Additional command line options : -6 -V -T "ARTIST=%a" -T "TITLE=%t" -T "ALBUM=%g" -T "DATE=%y" -T "TRACKNUMBER=%n" -T "GENRE=%m" -T "COMMENT=%e" %s -o %d
TOC of the extracted CD
Track | Start | Length | Start sector | End sector
---------------------------------------------------------
1 | 0:00.00 | 7:53.36 | 0 | 35510
2 | 7:53.36 | 8:51.37 | 35511 | 75372
3 | 16:44.73 | 7:56.23 | 75373 | 111095
4 | 24:41.21 | 5:51.45 | 111096 | 137465
5 | 30:32.66 | 10:28.31 | 137466 | 184596
6 | 41:01.22 | 7:56.50 | 184597 | 220346
Range status and errors
Selected range
Filename C:\z\The Thing with Joe McPhee - She Knows....wav
Peak level 98.9 %
Range quality 100.0 %
Copy CRC 31007AF0
Copy OK
No errors occurred
AccurateRip summary
Track 1 not present in database
Track 2 not present in database
Track 3 not present in database
Track 4 not present in database
Track 5 not present in database
Track 6 not present in database
None of the tracks are present in the AccurateRip database
End of status report
 
EAC Report (Disc 4)
Exact Audio Copy V0.99 prebeta 4 from 23. January 2008
EAC extraction logfile from 19. October 2008, 18:07
The Thing / Gluttony
Used drive : TSSTcorpCD/DVDW SH-S182M Adapter: 2 ID: 1
Read mode : Secure
Utilize accurate stream : Yes
Defeat audio cache : Yes
Make use of C2 pointers : No
Read offset correction : 6
Overread into Lead-In and Lead-Out : No
Fill up missing offset samples with silence : Yes
Delete leading and trailing silent blocks : No
Null samples used in CRC calculations : Yes
Used interface : Installed external ASPI interface
Used output format : User Defined Encoder
Selected bitrate : 1024 kBit/s
Quality : High
Add ID3 tag : No
Command line compressor : C:\Program Files\Exact Audio Copy\FLAC\FLAC.EXE
Additional command line options : -6 -V -T "ARTIST=%a" -T "TITLE=%t" -T "ALBUM=%g" -T "DATE=%y" -T "TRACKNUMBER=%n" -T "GENRE=%m" -T "COMMENT=%e" %s -o %d
TOC of the extracted CD
Track | Start | Length | Start sector | End sector
---------------------------------------------------------
1 | 0:00.00 | 17:57.60 | 0 | 80834
2 | 17:57.60 | 12:43.29 | 80835 | 138088
3 | 30:41.14 | 13:26.61 | 138089 | 198599
Range status and errors
Selected range
Filename C:\z\The Thing - Gluttony.wav
Peak level 98.8 %
Range quality 100.0 %
Copy CRC C843F649
Copy OK
No errors occurred
AccurateRip summary
Track 1 not present in database
Track 2 not present in database
Track 3 not present in database
None of the tracks are present in the AccurateRip database
End of status report
Приватный:
Нет (DHT включён)
Размер:
860.23 Мб (902,014,013 байт) » файлов: 13
Участники:
0 раздают, 0 качают (0 участников всего)
Внешние участники:
2 раздают, 1 качают (3 участников всего) [ Обновить ]
No seeders - write a personal message to user M0p94ok. Нет сидеров - пишите личное сообщение пользователю M0p94ok.
04:16
60
Нет комментариев. Ваш будет первым!