Поиск

(Avant-Garde / Modern Creative) Tim Berne - Fractured Fairy Tales - 1989, FLAC (image+.cue), lossless

(Avant-Garde / Modern Creative) Tim Berne - Fractured Fairy Tales - 1989, FLAC (image+.cue), lossless
Треклист:
Tim Berne - Fractured Fairy Tales
Жанр: Avant-Garde / Modern Creative
Год выпуска диска: 2003
Производитель диска: Germany (Winter & Winter)
Аудио кодек: FLAC
Тип рипа: image+.cue
Битрейт аудио: lossless
Продолжительность: 55:04
Mark Dresser contrabass, giffus, bungy
Tim Berne alto saxophone, voice
Herb Robertson trumpet, cornet, laryngeal crowbar
Mark Feldman violin, baritone violin
Hank Roberts cello, voice, electronically processed cello
Joey Baron drums, cz-101, shacktronics
Now Then
SEP
Hong Kong Sad Song / More Coffee
Evolution of a Pearl (Part 1 / Part 2)
Lightnin' Bug Boute
The Telex Blues
1989 JMT
2003 Winter & Winter
 
EAC Report
Exact Audio Copy V0.99 prebeta 4 from 23. January 2008
EAC extraction logfile from 24. August 2008, 11:06
Tim Berne / Fractured Fairy Tales
Used drive : TSSTcorpCD/DVDW SH-S182M Adapter: 2 ID: 0
Read mode : Secure
Utilize accurate stream : Yes
Defeat audio cache : Yes
Make use of C2 pointers : No
Read offset correction : 6
Overread into Lead-In and Lead-Out : No
Fill up missing offset samples with silence : Yes
Delete leading and trailing silent blocks : No
Null samples used in CRC calculations : No
Used interface : Installed external ASPI interface
Used output format : User Defined Encoder
Selected bitrate : 1024 kBit/s
Quality : High
Add ID3 tag : No
Command line compressor : C:\Program Files\Exact Audio Copy\FLAC\FLAC.EXE
Additional command line options : -6 -V -T "ARTIST=%a" -T "TITLE=%t" -T "ALBUM=%g" -T "DATE=%y" -T "TRACKNUMBER=%n" -T "GENRE=%m" -T "COMMENT=%e" %s -o %d
TOC of the extracted CD
Track | Start | Length | Start sector | End sector
---------------------------------------------------------
1 | 0:00.00 | 3:16.20 | 0 | 14719
2 | 3:16.20 | 8:10.00 | 14720 | 51469
3 | 11:26.20 | 11:41.05 | 51470 | 104049
4 | 23:07.25 | 19:36.70 | 104050 | 192319
5 | 42:44.20 | 0:42.07 | 192320 | 195476
6 | 43:26.27 | 11:37.30 | 195477 | 247781
Range status and errors
Selected range
Filename F:\z\Tim Berne - Fractured Fairy Tales.wav
Peak level 98.6 %
Range quality 100.0 %
Copy CRC CFCFA468
Copy OK
No errors occurred
AccurateRip summary
Track 1 not present in database
Track 2 not present in database
Track 3 not present in database
Track 4 not present in database
Track 5 not present in database
Track 6 not present in database
None of the tracks are present in the AccurateRip database
End of status report
Приватный:
Нет (DHT включён)
Размер:
336.96 Мб (353,330,091 байт) » файлов: 5
Участники:
0 раздают, 0 качают (0 участников всего)
Внешние участники:
5 раздают, 2 качают (7 участников всего) [ Обновить ]
No seeders - write a personal message to user M0p94ok. Нет сидеров - пишите личное сообщение пользователю M0p94ok.
04:16
61
Нет комментариев. Ваш будет первым!