Поиск

(avantgarde, free-jazz) Sex Mob - Dime Grind Palace - 2003, FLAC (image+.cue), lossless

(avantgarde, free-jazz) Sex Mob - Dime Grind Palace - 2003, FLAC (image+.cue), lossless
Треклист:
Sex Mob - Dime Grind Palace
Жанр: avantgarde, free-jazz
Год выпуска диска: 2003
Производитель диска: USA (RopeAdope Records)
Аудио кодек: FLAC
Тип рипа: image+.cue
Битрейт аудио: lossless
Продолжительность: 55.32
Трэклист:
1. Entrance Music
2. Kitchen
3. Dime Grind Palace
4. Translation 1
5. Blue and Sentimental
6. Mothra
7. Slide Serenade
8. Translation 4
9. Norberts Weiner
10. Baby Let Me Hold Your Hand
11. Translation 2
12. Artie Shaw
13. Call to the Freaks
14. Translation 3
15. Conk Buster
16. Exit Music
Доп. информация:
 
eac log
Exact Audio Copy V0.99 prebeta 4 from 23. January 2008
Отчёт EAC об извлечении, выполненном 19. октября 2008, 6:23
Sex Mob / Dime Grind Palace
Дисковод: Optiarc DVD RW AD-7170A Adapter: 0 ID: 1
Режим чтения : Достоверность
Использование точного потока : Да
Отключение кэша аудио : Да
Использование указателей C2 : Нет
Коррекция смещения при чтении : 48
Способность читать области Lead-in и Lead-out : Нет
Заполнение пропущенных сэмплов тишиной : Да
Удаление блоков с тишиной в начале и конце : Нет
При вычислениях CRC использовались нулевые сэмплы : Да
Интерфейс : Встроенный Win32-интерфейс для Win NT/2000
Выходной формат : Пользовательский кодировщик
Выбранный битрейт : 768 kBit/s
Качество : Высокий
Добавление ID3-тэга : Нет
Утилита сжатия : D:\Program Files\Exact Audio Copy\FLAC\FLAC.EXE
Дополнительные параметры : -6 -V -T "ARTIST=%a" -T "TITLE=%t" -T "ALBUM=%g" -T "DATE=%y" -T "TRACKNUMBER=%n" -T "GENRE=%m" -T "COMMENT=%e" %s -o %d
TOC извлечённого CD
Трек | Старт | Длительность | Начальный сектор | Конечный сектор
---------------------------------------------------------------------
1 | 0:00.00 | 0:20.51 | 0 | 1550
2 | 0:20.51 | 4:03.36 | 1551 | 19811
3 | 4:24.12 | 4:39.69 | 19812 | 40805
4 | 9:04.06 | 1:13.39 | 40806 | 46319
5 | 10:17.45 | 6:33.05 | 46320 | 75799
6 | 16:50.50 | 5:38.49 | 75800 | 101198
7 | 22:29.24 | 5:06.50 | 101199 | 124198
8 | 27:35.74 | 0:49.31 | 124199 | 127904
9 | 28:25.30 | 6:05.05 | 127905 | 155284
10 | 34:30.35 | 3:59.05 | 155285 | 173214
11 | 38:29.40 | 0:28.33 | 173215 | 175347
12 | 38:57.73 | 2:56.25 | 175348 | 188572
13 | 41:54.23 | 5:17.20 | 188573 | 212367
14 | 47:11.43 | 2:09.38 | 212368 | 222080
15 | 49:21.06 | 1:16.26 | 222081 | 227806
16 | 50:37.32 | 4:54.48 | 227807 | 249904
Характеристики диапазона извлечения и сообщения об ошибках
Выбранный диапазон
Имя файла D:\EAC\Sex Mob - Dime Grind Palace.wav
Пиковый уровень 99.2 %
Качество диапазона 99.9 %
CRC копии 8562FBC0
Копирование... OK
Ошибок не произошло
AccurateRip: сводка
Трек 1 точность не определена (достоверность 5) [A0FD15F6], AccurateRip вернул [A3A07939]
Трек 2 точность не определена (достоверность 5) [659BBC9D], AccurateRip вернул [86D17E7A]
Трек 3 точность не определена (достоверность 5) [6813CEE0], AccurateRip вернул [26D2B04E]
Трек 4 точность не определена (достоверность 5) [1DA39E57], AccurateRip вернул [C0E20DBF]
Трек 5 точность не определена (достоверность 5) [FB97EC72], AccurateRip вернул [2438393B]
Трек 6 точность не определена (достоверность 5) [AC7EB4EE], AccurateRip вернул [516AB85B]
Трек 7 точность не определена (достоверность 5) [07CF17D2], AccurateRip вернул [9E625F5A]
Трек 8 точность не определена (достоверность 5) [C7C821EE], AccurateRip вернул [6FCF3B55]
Трек 9 точность не определена (достоверность 5) [F661A497], AccurateRip вернул [E6E68776]
Трек 10 точность не определена (достоверность 5) [A660553B], AccurateRip вернул [CFB80C94]
Трек 11 точность не определена (достоверность 4) [BD8024EB], AccurateRip вернул [1CB5507A]
Трек 12 точность не определена (достоверность 5) [9F1AF61D], AccurateRip вернул [E7E401C9]
Трек 13 точность не определена (достоверность 5) [CA3CA93C], AccurateRip вернул [8D4AAE4D]
Трек 14 точность не определена (достоверность 5) [0C5C1972], AccurateRip вернул [FC3CA603]
Трек 15 точность не определена (достоверность 5) [C03BA4DA], AccurateRip вернул [20E45F2B]
Трек 16 точность не определена (достоверность 5) [6BF52ACC], AccurateRip вернул [296AEE82]
Ни один трек не прошёл проверки на точность
В вашей базе может быть иной вариант штамповки диска
Конец отчёта
Приватный:
Нет (DHT включён)
Размер:
322.03 Мб (337,669,291 байт) » файлов: 3
Участники:
0 раздают, 0 качают (0 участников всего)
Внешние участники:
1 раздают, 0 качают (1 участников всего) [ Обновить ]
No seeders - write a personal message to user M0p94ok. Нет сидеров - пишите личное сообщение пользователю M0p94ok.
04:15
69
Нет комментариев. Ваш будет первым!