Поиск

(Modern Creative, Sex Mob) Kamikaze Ground Crew - Covers 2000, FLAC (image+.cue), lossless

(Modern Creative, Sex Mob) Kamikaze Ground Crew - Covers 2000, FLAC (image+.cue), lossless
Треклист:
(Modern Creative, Sex Mob) Kamikaze Ground Crew-Covers 2000, FLAC (image+.cue), lossless
Жанр: Modern Creative
Год выпуска диска: 2000
Год записи диска: 1997
Производитель диска: Koch
Аудио кодек: FLAC
Тип рипа: image+.cue
Битрейт аудио: lossless
Продолжительность: 45:15
Приписал в названии "SexMob", что бы
понятней было откуда ноги растут.
Трэклист:
1. Morning in Bhutan - Kamikaze Ground Crew,
2. Capricorn - Kamikaze Ground Crew, Stockhausen, Karlhe
3. Electric Ladyland - Kamikaze Ground Crew, Hendrix, Jimi
4. Leo - Kamikaze Ground Crew, Stockhausen, Karlhe
5. Redite - Kamikaze Ground Crew, Satie, Erik
6. Huey Smith Medley:
Blow Wind Blow / Rockin' Pneumonia - Kamikaze Ground Crew,
Smith, Huey "Piano"
7. Easter Sunday - Kamikaze Ground Crew, Eisler, Hanns
8. Epilogue - Kamikaze Ground Crew, Hidalgo, David
Состав:
Doug Wieselman - clarinets,saxes, guitar, balalaika,organ
Gina Leishman - saxes,bass clarinet,accordion, vocals
Steven Bernstien - trumpet, slide trumpet
Peter Apfelbaum - tenor sax, soprano sax
Art Baron - trombone
Marcus Rojas - tuba
Kenny Wollesen - drums
Всё остальное от Kamikaze Ground Crew ЗДЕСЬ , за что огромное спасибо ivoronen
 
EAC log
Exact Audio Copy V0.99 prebeta 4 from 23. January 2008
Отчёт EAC об извлечении, выполненном 18. октября 2008, 14:41
Kamikaze Ground Crew / Covers
Дисковод: HL-DT-STDVDRAM GH20NS10 Adapter: 0 ID: 1
Режим чтения : Достоверность
Использование точного потока : Да
Отключение кэша аудио : Да
Использование указателей C2 : Нет
Коррекция смещения при чтении : 667
Способность читать области Lead-in и Lead-out : Нет
Заполнение пропущенных сэмплов тишиной : Да
Удаление блоков с тишиной в начале и конце : Нет
При вычислениях CRC использовались нулевые сэмплы : Да
Интерфейс : Установленный внешний ASPI-интерфейс
Выходной формат : Внутренние WAV-операции
Формат сэмплов : 44.100 Гц; 16 бит; стерео
TOC извлечённого CD
Трек | Старт | Длительность | Начальный сектор | Конечный сектор
---------------------------------------------------------------------
1 | 0:00.00 | 8:11.52 | 0 | 36876
2 | 8:11.52 | 4:29.68 | 36877 | 57119
3 | 12:41.45 | 4:08.02 | 57120 | 75721
4 | 16:49.47 | 3:04.08 | 75722 | 89529
5 | 19:53.55 | 2:47.45 | 89530 | 102099
6 | 22:41.25 | 8:56.72 | 102100 | 142371
7 | 31:38.22 | 9:28.28 | 142372 | 184999
8 | 41:06.50 | 4:07.20 | 185000 | 203544
Характеристики диапазона извлечения и сообщения об ошибках
Выбранный диапазон
Имя файла D:\Музыка\Записи\Kamikaze Ground Crew - Covers.wav
Пиковый уровень 100.0 %
Качество диапазона 100.0 %
CRC копии 5181E70B
Копирование... OK
Ошибок не произошло
Конец отчёта
Приватный:
Нет (DHT включён)
Размер:
230.86 Мб (242,077,151 байт) » файлов: 7
Участники:
0 раздают, 0 качают (0 участников всего)
Внешние участники:
1 раздают, 0 качают (1 участников всего) [ Обновить ]
No seeders - write a personal message to user M0p94ok. Нет сидеров - пишите личное сообщение пользователю M0p94ok.
04:15
64
Нет комментариев. Ваш будет первым!