Поиск

(avantgarde, modern creative, Tzadik Oracles series) Phantom Orchard - ORRA (Zeena Parkis & Ikue Mori, with Maja S.K. Ratkje, Makigami Koichi) - 2008, FLAC (image+.cue), lossless

Треклист:
Phantom Orchard - ORRA (Zeena Parkis & Ikue Mori, with Maja S.K. Ratkje, Makigami Koichi)
Жанр: avantgarde, modern creative, Tzadik Oracles series
Год выпуска диска: 2008
Производитель диска: USA (Tzadik)
Аудио кодек: FLAC
Тип рипа: image+.cue
Битрейт аудио: lossless
Продолжительность: 50.05
Трэклист:
1. Inquisitive Fingers
2. Gypsoflia
3. Omni
4. Cavalcade
5. Ship of the Damned
6. Big Foot
7. Cascade of Joy
8. Green Dome
9. The Well
10. Magnetic Sleep
11. Kiss that Conquers
Доп. информация: Personnel:
Cyro Baptista: Percussion
Makigami Koichi: Voice, Jewsharp
Ikue Mori: Electronics
Zeena Parkins: Electric Harp, Acoustic Harp, Omnichord
Josh Quillen: Steel Drum
Maja Solveig Kjelstrup Ratkje: Voice, Real Time Processing
Это нечто нереальное, неподвластное какой-либо классификации. Очень рекомендую - музыка совершенно не похожа на то, что они делали раньше, но это идет скорее в достоинство - поскольку здесь этот прославленный дуэт достиг таких высот или даже будет вернее - глубин, что раньше и не предполагались даже теоретически. лично меня диск просто шокировал.
 
eac log
Exact Audio Copy V0.99 prebeta 4 from 23. January 2008
Отчёт EAC об извлечении, выполненном 21. октября 2008, 8:09
Phantom Orchard / Orra
Дисковод: Optiarc DVD RW AD-7170A Adapter: 0 ID: 1
Режим чтения : Достоверность
Использование точного потока : Да
Отключение кэша аудио : Да
Использование указателей C2 : Нет
Коррекция смещения при чтении : 48
Способность читать области Lead-in и Lead-out : Нет
Заполнение пропущенных сэмплов тишиной : Да
Удаление блоков с тишиной в начале и конце : Нет
При вычислениях CRC использовались нулевые сэмплы : Да
Интерфейс : Встроенный Win32-интерфейс для Win NT/2000
Выходной формат : Пользовательский кодировщик
Выбранный битрейт : 768 kBit/s
Качество : Высокий
Добавление ID3-тэга : Нет
Утилита сжатия : D:\Program Files\Exact Audio Copy\FLAC\FLAC.EXE
Дополнительные параметры : -6 -V -T "ARTIST=%a" -T "TITLE=%t" -T "ALBUM=%g" -T "DATE=%y" -T "TRACKNUMBER=%n" -T "GENRE=%m" -T "COMMENT=%e" %s -o %d
TOC извлечённого CD
Трек | Старт | Длительность | Начальный сектор | Конечный сектор
---------------------------------------------------------------------
1 | 0:00.00 | 5:51.61 | 0 | 26385
2 | 5:51.61 | 5:50.57 | 26386 | 52692
3 | 11:42.43 | 3:21.39 | 52693 | 67806
4 | 15:04.07 | 5:47.65 | 67807 | 93896
5 | 20:51.72 | 3:39.42 | 93897 | 110363
6 | 24:31.39 | 2:21.18 | 110364 | 120956
7 | 26:52.57 | 2:53.09 | 120957 | 133940
8 | 29:45.66 | 4:47.37 | 133941 | 155502
9 | 34:33.28 | 5:30.51 | 155503 | 180303
10 | 40:04.04 | 4:58.01 | 180304 | 202654
11 | 45:02.05 | 5:03.39 | 202655 | 225418
Характеристики диапазона извлечения и сообщения об ошибках
Выбранный диапазон
Имя файла D:\EAC\Phantom Orchard - Orra.wav
Пиковый уровень 97.7 %
Качество диапазона 100.0 %
CRC копии B34FF90A
Копирование... OK
Ошибок не произошло
AccurateRip: сводка
Трек 1 нет в базе данных
Трек 2 нет в базе данных
Трек 3 нет в базе данных
Трек 4 нет в базе данных
Трек 5 нет в базе данных
Трек 6 нет в базе данных
Трек 7 нет в базе данных
Трек 8 нет в базе данных
Трек 9 нет в базе данных
Трек 10 нет в базе данных
Трек 11 нет в базе данных
Ни одного трека нет в базе AccurateRip
Конец отчёта
Приватный:
Нет (DHT включён)
Размер:
262.50 Мб (275,255,944 байт) » файлов: 3
Участники:
0 раздают, 0 качают (0 участников всего)
Внешние участники:
3 раздают, 1 качают (4 участников всего) [ Обновить ]
No seeders - write a personal message to user M0p94ok. Нет сидеров - пишите личное сообщение пользователю M0p94ok.
04:17
46
Нет комментариев. Ваш будет первым!