Поиск

(Modern Free / Avant-Garde) Atomic - Retrograde (3 CD) - 2008, FLAC (image+.cue), lossless

(Modern Free / Avant-Garde) Atomic - Retrograde (3 CD) - 2008, FLAC (image+.cue), lossless
Треклист:
Atomic - Retrograde (3 CD)
Жанр: Modern Free / Avant-Garde
Год выпуска диска: 2008
Производитель диска: Germany
Аудио кодек: FLAC
Тип рипа: image+.cue
Битрейт аудио: lossless
Продолжительность: 50:17 + 46:08 + 57:32
Fredrik Ljungkvist reeds
Magnus Broo trumpet
Håvard Wiik piano
Ingebrigt Håker Flaten bass
Paal Nilssen-Love drums, percussion
Disc 1
1. DB Gestalt
2. Retrograde
3. Invisible Cities
4. Painbody
5. Correspondence
6. Sweet Ebony
7. King Kolax
Disc 2
1. Invisible Cities II
2. Papa
3. Don Don
4. Folkton
5. Hola Calamares
6. Swedish Oklahoma
7. Koloniestraße
Disc 3: Live In Seattle (recorded in concert at Tula's Jazz Club in Seattle Jan 24th 2008)
1. Crux
2. DB Gestalt
3. Painbody
4. Swedish Oklahoma
5. Kong Kolax
6. ABC 101b
 
EAC Report (Disc 1)
Exact Audio Copy V0.99 prebeta 4 from 23. January 2008
EAC extraction logfile from 27. October 2008, 23:07
Atomic / Retrograde (Disc 1)
Used drive : TSSTcorpCD/DVDW SH-S182M Adapter: 2 ID: 1
Read mode : Secure
Utilize accurate stream : Yes
Defeat audio cache : Yes
Make use of C2 pointers : No
Read offset correction : 6
Overread into Lead-In and Lead-Out : No
Fill up missing offset samples with silence : Yes
Delete leading and trailing silent blocks : No
Null samples used in CRC calculations : Yes
Used interface : Installed external ASPI interface
Used output format : User Defined Encoder
Selected bitrate : 1024 kBit/s
Quality : High
Add ID3 tag : No
Command line compressor : C:\Program Files\Exact Audio Copy\FLAC\FLAC.EXE
Additional command line options : -6 -V -T "ARTIST=%a" -T "TITLE=%t" -T "ALBUM=%g" -T "DATE=%y" -T "TRACKNUMBER=%n" -T "GENRE=%m" -T "COMMENT=%e" %s -o %d
TOC of the extracted CD
Track | Start | Length | Start sector | End sector
---------------------------------------------------------
1 | 0:00.00 | 8:14.27 | 0 | 37076
2 | 8:14.27 | 10:25.35 | 37077 | 83986
3 | 18:39.62 | 6:30.18 | 83987 | 113254
4 | 25:10.05 | 5:58.45 | 113255 | 140149
5 | 31:08.50 | 7:21.61 | 140150 | 173285
6 | 38:30.36 | 4:01.02 | 173286 | 191362
7 | 42:31.38 | 7:45.13 | 191363 | 226250
Range status and errors
Selected range
Filename C:\z\Atomic - Retrograde (Disc 1).wav
Peak level 96.5 %
Range quality 100.0 %
Copy CRC 683914CB
Copy OK
No errors occurred
AccurateRip summary
Track 1 not present in database
Track 2 not present in database
Track 3 not present in database
Track 4 not present in database
Track 5 not present in database
Track 6 not present in database
Track 7 not present in database
None of the tracks are present in the AccurateRip database
End of status report
 
EAC Report (Disc 2)
Exact Audio Copy V0.99 prebeta 4 from 23. January 2008
EAC extraction logfile from 27. October 2008, 23:20
Atomic / Retrograde (Disc 2)
Used drive : TSSTcorpCD/DVDW SH-S182M Adapter: 2 ID: 1
Read mode : Secure
Utilize accurate stream : Yes
Defeat audio cache : Yes
Make use of C2 pointers : No
Read offset correction : 6
Overread into Lead-In and Lead-Out : No
Fill up missing offset samples with silence : Yes
Delete leading and trailing silent blocks : No
Null samples used in CRC calculations : Yes
Used interface : Installed external ASPI interface
Used output format : User Defined Encoder
Selected bitrate : 1024 kBit/s
Quality : High
Add ID3 tag : No
Command line compressor : C:\Program Files\Exact Audio Copy\FLAC\FLAC.EXE
Additional command line options : -6 -V -T "ARTIST=%a" -T "TITLE=%t" -T "ALBUM=%g" -T "DATE=%y" -T "TRACKNUMBER=%n" -T "GENRE=%m" -T "COMMENT=%e" %s -o %d
TOC of the extracted CD
Track | Start | Length | Start sector | End sector
---------------------------------------------------------
1 | 0:00.00 | 7:08.40 | 0 | 32139
2 | 7:08.40 | 9:29.41 | 32140 | 74855
3 | 16:38.06 | 3:49.38 | 74856 | 92068
4 | 20:27.44 | 8:32.68 | 92069 | 130536
5 | 29:00.37 | 5:23.74 | 130537 | 154835
6 | 34:24.36 | 4:51.29 | 154836 | 176689
7 | 39:15.65 | 6:52.00 | 176690 | 207589
Range status and errors
Selected range
Filename C:\z\Atomic - Retrograde (Disc 2).wav
Peak level 96.5 %
Range quality 100.0 %
Copy CRC 8BE3B7C4
Copy OK
No errors occurred
AccurateRip summary
Track 1 not present in database
Track 2 not present in database
Track 3 not present in database
Track 4 not present in database
Track 5 not present in database
Track 6 not present in database
Track 7 not present in database
None of the tracks are present in the AccurateRip database
End of status report
 
EAC Report (Disc 3)
Exact Audio Copy V0.99 prebeta 4 from 23. January 2008
EAC extraction logfile from 27. October 2008, 23:34
Atomic / Retrograde (Disc 3)
Used drive : TSSTcorpCD/DVDW SH-S182M Adapter: 2 ID: 1
Read mode : Secure
Utilize accurate stream : Yes
Defeat audio cache : Yes
Make use of C2 pointers : No
Read offset correction : 6
Overread into Lead-In and Lead-Out : No
Fill up missing offset samples with silence : Yes
Delete leading and trailing silent blocks : No
Null samples used in CRC calculations : Yes
Used interface : Installed external ASPI interface
Used output format : User Defined Encoder
Selected bitrate : 1024 kBit/s
Quality : High
Add ID3 tag : No
Command line compressor : C:\Program Files\Exact Audio Copy\FLAC\FLAC.EXE
Additional command line options : -6 -V -T "ARTIST=%a" -T "TITLE=%t" -T "ALBUM=%g" -T "DATE=%y" -T "TRACKNUMBER=%n" -T "GENRE=%m" -T "COMMENT=%e" %s -o %d
TOC of the extracted CD
Track | Start | Length | Start sector | End sector
---------------------------------------------------------
1 | 0:00.00 | 13:03.69 | 0 | 58793
2 | 13:03.69 | 12:17.03 | 58794 | 114071
3 | 25:20.72 | 8:22.69 | 114072 | 151790
4 | 33:43.66 | 4:59.04 | 151791 | 174219
5 | 38:42.70 | 10:41.20 | 174220 | 222314
6 | 49:24.15 | 8:07.29 | 222315 | 258868
Range status and errors
Selected range
Filename C:\z\Atomic - Retrograde (Disc 3).wav
Peak level 96.4 %
Range quality 100.0 %
Copy CRC E9E9BA36
Copy OK
No errors occurred
AccurateRip summary
Track 1 not present in database
Track 2 not present in database
Track 3 not present in database
Track 4 not present in database
Track 5 not present in database
Track 6 not present in database
None of the tracks are present in the AccurateRip database
End of status report
Приватный:
Нет (DHT включён)
Размер:
938.72 Мб (984,324,179 байт) » файлов: 13
Участники:
0 раздают, 0 качают (0 участников всего)
Внешние участники:
2 раздают, 1 качают (3 участников всего) [ Обновить ]
No seeders - write a personal message to user M0p94ok. Нет сидеров - пишите личное сообщение пользователю M0p94ok.
04:29
49
Нет комментариев. Ваш будет первым!