Поиск

(free jazz) Prince Lasha Quintet (featuring Sonny Simmons) - The Cry! 1962, FLAC (image+.cue), lossless

Треклист:


Prince Lasha Quintet (featuring Sonny Simmons)
The Cry!
Жанр: free jazz
Год выпуска:
Формат: FLAC (image+.cue)
Битрейт аудио: lossless
Продолжительность: 43
Источник: nnm
Sonny Simmons (as) Prince Lasha (as, fl) Gary Peacock (b) Mark Proctor (b -1,3/6) Gene Stone (d)

tracks

1. Congo Call
2. Bojangles
3. Green And Gold
4. Ghost Of The Past
5. Red's Mood
6. Juanita
7. Lost Generation
8. A.Y.


Sonny Simmons и Prince Lasha очень хорошая и незаслужено малоизвестная компания, в свое время я выкладывал 1 их альбом, тут.
 
logfile
Exact Audio Copy V0.99 prebeta 3 from 28. July 2007
Отчёт EAC об извлечении, выполненном 13. октября 2008, 21:13
Prince Lasha Quintet (featuring Sonny Simmons) / The Cry!
Дисковод: _NEC DVD_RW ND-3540A Adapter: 2 ID: 0
Режим чтения : Достоверность
Использование точного потока : Да
Отключение кэша аудио : Да
Использование указателей C2 : Нет
Коррекция смещения при чтении : 48
Способность читать области Lead-in и Lead-out : Нет
Заполнение пропущенных сэмплов тишиной : Да
Удаление блоков с тишиной в начале и конце : Нет
При вычислениях CRC использовались нулевые сэмплы : Да
Интерфейс : Установленный внешний ASPI-интерфейс
Выходной формат : Пользовательский кодировщик
Выбранный битрейт : 768 kBit/s
Качество : Высокий
Добавление ID3-тэга : Да
Утилита сжатия : C:\Program Files\Exact Audio Copy\FLAC\FLAC.EXE
Дополнительные параметры : -6 -V -T "ARTIST=%a" -T "TITLE=%t" -T "ALBUM=%g" -T "DATE=%y" -T "TRACKNUMBER=%n" -T "GENRE=%m" -T "COMMENT=%e" %s -o %d
TOC извлечённого CD
Трек | Старт | Длительность | Начальный сектор | Конечный сектор
---------------------------------------------------------------------
1 | 0:00.00 | 5:07.50 | 0 | 23074
2 | 5:07.50 | 7:01.50 | 23075 | 54699
3 | 12:09.25 | 4:55.55 | 54700 | 76879
4 | 17:05.05 | 5:03.55 | 76880 | 99659
5 | 22:08.60 | 5:07.55 | 99660 | 122739
6 | 27:16.40 | 5:36.15 | 122740 | 147954
7 | 32:52.55 | 5:18.62 | 147955 | 171866
8 | 38:11.42 | 4:48.38 | 171867 | 193504
Характеристики диапазона извлечения и сообщения об ошибках
Выбранный диапазон
Имя файла C:\Documents and Settings\Миша\Мои документы\Prince Lasha Quintet\Prince Lasha Quintet (featuring Sonny Simmons) - The Cry!.wav
Пиковый уровень 100.0 %
Качество диапазона 100.0 %
CRC копии ECEEB980
Копирование... OK
Ошибок не произошло
AccurateRip: сводка
Трек 1 нет в базе данных
Трек 2 нет в базе данных
Трек 3 нет в базе данных
Трек 4 нет в базе данных
Трек 5 нет в базе данных
Трек 6 нет в базе данных
Трек 7 нет в базе данных
Трек 8 нет в базе данных
Ни одного трека нет в базе AccurateRip
Конец отчёта

 
.cue
REM GENRE Jazz
REM DATE 2001
REM DISCID 610A1408
REM COMMENT "ExactAudioCopy v0.99pb3"
PERFORMER "Prince Lasha Quintet (featuring Sonny Simmons)"
TITLE "The Cry!"
FILE "Prince Lasha Quintet (featuring Sonny Simmons) - The Cry!.flac" WAVE
TRACK 01 AUDIO
TITLE "Congo Call"
PERFORMER "Prince Lasha Quintet (featuring Sonny Simmons)"
INDEX 01 00:00:00
TRACK 02 AUDIO
TITLE "Bojangles"
PERFORMER "Prince Lasha Quintet (featuring Sonny Simmons)"
INDEX 00 05:05:30
INDEX 01 05:07:50
TRACK 03 AUDIO
TITLE "Green and Gold"
PERFORMER "Prince Lasha Quintet (featuring Sonny Simmons)"
INDEX 00 12:06:42
INDEX 01 12:09:25
TRACK 04 AUDIO
TITLE "Ghost of the Past"
PERFORMER "Prince Lasha Quintet (featuring Sonny Simmons)"
INDEX 00 17:02:35
INDEX 01 17:05:05
TRACK 05 AUDIO
TITLE "Red's Mood"
PERFORMER "Prince Lasha Quintet (featuring Sonny Simmons)"
INDEX 00 22:07:25
INDEX 01 22:08:60
TRACK 06 AUDIO
TITLE "Juanita"
PERFORMER "Prince Lasha Quintet (featuring Sonny Simmons)"
INDEX 00 27:14:35
INDEX 01 27:16:40
TRACK 07 AUDIO
TITLE "Lost Generation"
PERFORMER "Prince Lasha Quintet (featuring Sonny Simmons)"
INDEX 00 32:50:10
INDEX 01 32:52:55
TRACK 08 AUDIO
TITLE "A.Y."
PERFORMER "Prince Lasha Quintet (featuring Sonny Simmons)"
INDEX 00 38:09:25
INDEX 01 38:11:42

другие релизы
Приватный:
Нет (DHT включён)
Размер:
305.93 Мб (320,793,598 байт) » файлов: 9
Участники:
0 раздают, 0 качают (0 участников всего)
Внешние участники:
2 раздают, 1 качают (3 участников всего) [ Обновить ]
No seeders - write a personal message to user M0p94ok. Нет сидеров - пишите личное сообщение пользователю M0p94ok.
04:28
58
Нет комментариев. Ваш будет первым!