Поиск

(Avant-Garde / Modern Creative) Mark Dresser & Ray Anderson - Nine Songs Together - 2003, FLAC (image+.cue), lossless

(Avant-Garde / Modern Creative) Mark Dresser & Ray Anderson - Nine Songs Together - 2003, FLAC (image+.cue), lossless
Треклист:
Mark Dresser & Ray Anderson - Nine Songs Together
Жанр: Avant-Garde / Modern Creative
Год выпуска диска: 2003
Производитель диска: USA (CIMP)
Аудио кодек: FLAC
Тип рипа: image+.cue
Битрейт аудио: lossless
Продолжительность: 1:09:29
Mark Dresser bass
Ray Anderson trombone
1. One Plate
2. I Wish I Knew How It Would Feel To Be Free
3. Ekoneni
4. Taps For Jackie
5. Slipinstyle
The Five Outer Planets:
6. Jupiter
7. Saturn
8. Uranus
9. Neptune
10. Pluto
11. The Feast of Love
12. Insistent
13. I'm Confessin' That I Love You
 
EAC Report
Exact Audio Copy V0.99 prebeta 4 from 23. January 2008
EAC extraction logfile from 28. October 2008, 23:37
Mark Dresser / Ray Anderson / Nine Songs Together
Used drive : TSSTcorpCD/DVDW SH-S182M Adapter: 2 ID: 1
Read mode : Secure
Utilize accurate stream : Yes
Defeat audio cache : Yes
Make use of C2 pointers : No
Read offset correction : 6
Overread into Lead-In and Lead-Out : No
Fill up missing offset samples with silence : Yes
Delete leading and trailing silent blocks : No
Null samples used in CRC calculations : Yes
Used interface : Installed external ASPI interface
Used output format : User Defined Encoder
Selected bitrate : 1024 kBit/s
Quality : High
Add ID3 tag : No
Command line compressor : C:\Program Files\Exact Audio Copy\FLAC\FLAC.EXE
Additional command line options : -6 -V -T "ARTIST=%a" -T "TITLE=%t" -T "ALBUM=%g" -T "DATE=%y" -T "TRACKNUMBER=%n" -T "GENRE=%m" -T "COMMENT=%e" %s -o %d
TOC of the extracted CD
Track | Start | Length | Start sector | End sector
---------------------------------------------------------
1 | 0:00.00 | 13:27.48 | 0 | 60572
2 | 13:27.48 | 7:58.30 | 60573 | 96452
3 | 21:26.03 | 3:49.50 | 96453 | 113677
4 | 25:15.53 | 10:57.22 | 113678 | 162974
5 | 36:13.00 | 6:06.34 | 162975 | 190458
6 | 42:19.34 | 2:05.08 | 190459 | 199841
7 | 44:24.42 | 0:59.71 | 199842 | 204337
8 | 45:24.38 | 2:12.70 | 204338 | 214307
9 | 47:37.33 | 2:15.50 | 214308 | 224482
10 | 49:53.08 | 2:29.22 | 224483 | 235679
11 | 52:22.30 | 6:15.33 | 235680 | 263837
12 | 58:37.63 | 4:31.62 | 263838 | 284224
13 | 63:09.50 | 6:19.25 | 284225 | 312674
Range status and errors
Selected range
Filename C:\z\Mark Dresser & Ray Anderson - Nine Songs Together.wav
Peak level 99.4 %
Range quality 100.0 %
Copy CRC F889BC21
Copy OK
No errors occurred
AccurateRip summary
Track 1 not present in database
Track 2 not present in database
Track 3 not present in database
Track 4 not present in database
Track 5 not present in database
Track 6 not present in database
Track 7 not present in database
Track 8 not present in database
Track 9 not present in database
Track 10 not present in database
Track 11 not present in database
Track 12 not present in database
Track 13 not present in database
None of the tracks are present in the AccurateRip database
End of status report
Приватный:
Нет (DHT включён)
Размер:
196.31 Мб (205,848,457 байт) » файлов: 5
Участники:
0 раздают, 0 качают (0 участников всего)
Внешние участники:
5 раздают, 1 качают (6 участников всего) [ Обновить ]
No seeders - write a personal message to user M0p94ok. Нет сидеров - пишите личное сообщение пользователю M0p94ok.
04:27
56
Нет комментариев. Ваш будет первым!